  0
SECTION
  2
HEADER
  9
$ACADVER
  1
AC1015
  9
$ACADMAINTVER
 70
               6
  9
$DWGCODEPAGE
  3
ANSI_932
  9
$INSBASE
 10
0.0
 20
0.0
 30
0.0
  9
$EXTMIN
 10
-178.29999999999995
 20
-125.89999999999998
 30
-2.0990277777777777
  9
$EXTMAX
 10
229.70000000000005
 20
159.10000000000002
 30
2.0990277777777777
  9
$LIMMIN
 10
0.0
 20
0.0
  9
$LIMMAX
 10
0.0
 20
0.0
  9
$ORTHOMODE
 70
               0
  9
$REGENMODE
 70
               1
  9
$FILLMODE
 70
               1
  9
$QTEXTMODE
 70
               0
  9
$MIRRTEXT
 70
               1
  9
$LTSCALE
 40
12.699999999999999
  9
$ATTMODE
 70
               1
  9
$TEXTSIZE
 40
0.2
  9
$TRACEWID
 40
1.0
  9
$TEXTSTYLE
  7
Standard
  9
$CLAYER
  8
0
  9
$CELTYPE
  6
Continuous
  9
$CECOLOR
 62
             256
  9
$CELTSCALE
 40
1.0
  9
$DISPSILH
 70
               0
  9
$DIMSCALE
 40
1.0
  9
$DIMASZ
 40
2.2448242187499998
  9
$DIMEXO
 40
1.5874999999999999
  9
$DIMDLI
 40
10.16
  9
$DIMRND
 40
0.0
  9
$DIMDLE
 40
1.5874999999999999
  9
$DIMEXE
 40
3.1749999999999998
  9
$DIMTP
 40
0.0
  9
$DIMTM
 40
0.0
  9
$DIMTXT
 40
4.8865234375000002
  9
$DIMCEN
 40
0.0
  9
$DIMTSZ
 40
0.0
  9
$DIMTOL
 70
               0
  9
$DIMLIM
 70
               0
  9
$DIMTIH
 70
               0
  9
$DIMTOH
 70
               0
  9
$DIMSE1
 70
               0
  9
$DIMSE2
 70
               0
  9
$DIMTAD
 70
               1
  9
$DIMZIN
 70
              11
  9
$DIMBLK
  1
VW_SLASH
  9
$DIMASO
 70
               1
  9
$DIMSHO
 70
               1
  9
$DIMPOST
  1
<>
  9
$DIMAPOST
  1
[]
  9
$DIMALT
 70
               0
  9
$DIMALTD
 70
               3
  9
$DIMALTF
 40
0.0393700787401575
  9
$DIMLFAC
 40
1.0
  9
$DIMTOFL
 70
               1
  9
$DIMTVP
 40
0.0
  9
$DIMTIX
 70
               1
  9
$DIMSOXD
 70
               0
  9
$DIMSAH
 70
               0
  9
$DIMBLK1
  1

  9
$DIMBLK2
  1

  9
$DIMSTYLE
  2
Arch
  9
$DIMCLRD
 70
               0
  9
$DIMCLRE
 70
               0
  9
$DIMCLRT
 70
               0
  9
$DIMTFAC
 40
0.8
  9
$DIMGAP
 40
1.5874999999999999
  9
$DIMJUST
 70
               0
  9
$DIMSD1
 70
               0
  9
$DIMSD2
 70
               0
  9
$DIMTOLJ
 70
               1
  9
$DIMTZIN
 70
              11
  9
$DIMALTZ
 70
              15
  9
$DIMALTTZ
 70
              15
  9
$DIMUPT
 70
               0
  9
$DIMDEC
 70
               1
  9
$DIMTDEC
 70
               1
  9
$DIMALTU
 70
               4
  9
$DIMALTTD
 70
               2
  9
$DIMTXSTY
  7
ＭＳ ゴシック
  9
$DIMAUNIT
 70
               0
  9
$DIMADEC
 70
               2
  9
$DIMALTRND
 40
0.0
  9
$DIMAZIN
 70
               0
  9
$DIMDSEP
 70
              46
  9
$DIMATFIT
 70
               0
  9
$DIMFRAC
 70
               2
  9
$DIMLDRBLK
  1

  9
$DIMLUNIT
 70
               2
  9
$DIMLWD
 70
              -2
  9
$DIMLWE
 70
              -2
  9
$DIMTMOVE
 70
               0
  9
$LUNITS
 70
               2
  9
$LUPREC
 70
               4
  9
$SKETCHINC
 40
0.1
  9
$FILLETRAD
 40
0.0
  9
$AUNITS
 70
               0
  9
$AUPREC
 70
               0
  9
$MENU
  1
acad
  9
$ELEVATION
 40
0.0
  9
$PELEVATION
 40
0.0
  9
$THICKNESS
 40
0.0
  9
$LIMCHECK
 70
               0
  9
$CHAMFERA
 40
0.0
  9
$CHAMFERB
 40
0.0
  9
$CHAMFERC
 40
0.0
  9
$CHAMFERD
 40
0.0
  9
$SKPOLY
 70
               0
  9
$TDCREATE
 40
2457077.668194444
  9
$TDUCREATE
 40
0.000000000
  9
$TDUPDATE
 40
2457077.668194444
  9
$TDUUPDATE
 40
0.000000000
  9
$TDINDWG
 40
0.0000000000
  9
$TDUSRTIMER
 40
0.0000000000
  9
$USRTIMER
 70
               1
  9
$ANGBASE
 50
0.0
  9
$ANGDIR
 70
               0
  9
$PDMODE
 70
               1
  9
$PDSIZE
 40
-2.0
  9
$PLINEWID
 40
0.0
  9
$SPLFRAME
 70
               0
  9
$SPLINETYPE
 70
               6
  9
$SPLINESEGS
 70
               8
  9
$HANDSEED
  5
3F0
  9
$SURFTAB1
 70
               6
  9
$SURFTAB2
 70
               6
  9
$SURFTYPE
 70
               6
  9
$SURFU
 70
               6
  9
$SURFV
 70
               6
  9
$UCSBASE
  2

  9
$UCSNAME
  2

  9
$UCSORG
 10
0.0
 20
0.0
 30
0.0
  9
$UCSXDIR
 10
1.0
 20
0.0
 30
0.0
  9
$UCSYDIR
 10
0.0
 20
1.0
 30
0.0
  9
$UCSORTHOREF
  2

  9
$UCSORTHOVIEW
 70
               0
  9
$UCSORGTOP
 10
0.0
 20
0.0
 30
0.0
  9
$UCSORGBOTTOM
 10
0.0
 20
0.0
 30
0.0
  9
$UCSORGLEFT
 10
0.0
 20
0.0
 30
0.0
  9
$UCSORGRIGHT
 10
0.0
 20
0.0
 30
0.0
  9
$UCSORGFRONT
 10
0.0
 20
0.0
 30
0.0
  9
$UCSORGBACK
 10
0.0
 20
0.0
 30
0.0
  9
$PUCSBASE
  2

  9
$PUCSNAME
  2

  9
$PUCSORG
 10
0.0
 20
0.0
 30
0.0
  9
$PUCSXDIR
 10
1.0
 20
0.0
 30
0.0
  9
$PUCSYDIR
 10
0.0
 20
1.0
 30
0.0
  9
$PUCSORTHOREF
  2

  9
$PUCSORTHOVIEW
 70
               0
  9
$PUCSORGTOP
 10
0.0
 20
0.0
 30
0.0
  9
$PUCSORGBOTTOM
 10
0.0
 20
0.0
 30
0.0
  9
$PUCSORGLEFT
 10
0.0
 20
0.0
 30
0.0
  9
$PUCSORGRIGHT
 10
0.0
 20
0.0
 30
0.0
  9
$PUCSORGFRONT
 10
0.0
 20
0.0
 30
0.0
  9
$PUCSORGBACK
 10
0.0
 20
0.0
 30
0.0
  9
$USERI1
 70
               0
  9
$USERI2
 70
               0
  9
$USERI3
 70
               0
  9
$USERI4
 70
               0
  9
$USERI5
 70
               0
  9
$USERR1
 40
0.0
  9
$USERR2
 40
0.0
  9
$USERR3
 40
0.0
  9
$USERR4
 40
0.0
  9
$USERR5
 40
0.0
  9
$WORLDVIEW
 70
               1
  9
$SHADEDGE
 70
               3
  9
$SHADEDIF
 70
              70
  9
$TILEMODE
 70
               1
  9
$MAXACTVP
 70
              64
  9
$PINSBASE
 10
0.0
 20
0.0
 30
0.0
  9
$PLIMCHECK
 70
               0
  9
$PEXTMIN
 10
1.0000000000000000E+20
 20
1.0000000000000000E+20
 30
1.0000000000000000E+20
  9
$PEXTMAX
 10
-1.0000000000000000E+20
 20
-1.0000000000000000E+20
 30
-1.0000000000000000E+20
  9
$PLIMMIN
 10
0.0
 20
0.0
  9
$PLIMMAX
 10
12.0
 20
9.0
  9
$UNITMODE
 70
               0
  9
$VISRETAIN
 70
               0
  9
$PLINEGEN
 70
               1
  9
$PSLTSCALE
 70
               0
  9
$TREEDEPTH
 70
            3020
  9
$CMLSTYLE
  2
Standard
  9
$CMLJUST
 70
               0
  9
$CMLSCALE
 40
1.0
  9
$PROXYGRAPHICS
 70
               0
  9
$MEASUREMENT
 70
               1
  9
$CELWEIGHT
370
               0
  9
$ENDCAPS
280
               0
  9
$JOINSTYLE
280
               0
  9
$LWDISPLAY
290
               1
  9
$INSUNITS
 70
               4
  9
$HYPERLINKBASE
  1

  9
$STYLESHEET
  1

  9
$XEDIT
290
               1
  9
$CEPSNTYPE
380
               0
  9
$PSTYLEMODE
290
               1
  9
$FINGERPRINTGUID
  2

  9
$VERSIONGUID
  2

  9
$EXTNAMES
290
               1
  9
$PSVPSCALE
 40
0.0
  0
ENDSEC
  0
SECTION
  2
CLASSES
  0
CLASS
  1
LWPOLYLINE
  2
AcDbPolyline
  3
AutoCAD 2000
 90
        0
280
               0
281
               1
  0
CLASS
  1
IMAGE
  2
AcDbRasterImage
  3
ISM
 90
    32895
280
               0
281
               1
  0
CLASS
  1
OLE2FRAME
  2
AcDbOle2Frame
  3
AutoCAD 2000
 90
    32768
280
               0
281
               1
  0
CLASS
  1
HATCH
  2
AcDbHatch
  3
AutoCAD 2000
 90
    32768
280
               0
281
               1
  0
CLASS
  1
DICTIONARYVAR
  2
AcDbDictionaryVar
  3
AutoCAD 2000
 90
    32768
280
               0
281
               0
  0
CLASS
  1
RASTERVARIABLES
  2
AcDbRasterVariables
  3
ISM
 90
    32768
280
               0
281
               0
  0
CLASS
  1
IMAGEDEF
  2
AcDbRasterImageDef
  3
ISM
 90
    32768
280
               0
281
               0
  0
CLASS
  1
IMAGEDEF_REACTOR
  2
AcDbRasterImageDefReactor
  3
ISM
 90
    32769
280
               0
281
               0
  0
CLASS
  1
IDBUFFER
  2
AcDbIdBuffer
  3
AutoCAD 2000
 90
    32768
280
               0
281
               0
  0
CLASS
  1
SPATIAL_FILTER
  2
AcDbSpatialFilter
  3
AutoCAD 2000
 90
    32768
280
               0
281
               0
  0
CLASS
  1
XRECORD
  2
AcDbXrecord
  3
AutoCAD 2000
 90
    32768
280
               0
281
               0
  0
CLASS
  1
SORTENTSTABLE
  2
AcDbSortentsTable
  3
AutoCAD 2000
 90
    32768
280
               0
281
               0
  0
CLASS
  1
LAYER_INDEX
  2
AcDbLayerIndex
  3
AutoCAD 2000
 90
    32768
280
               0
281
               0
  0
CLASS
  1
SPATIAL_INDEX
  2
AcDbSpatialIndex
  3
AutoCAD 2000
 90
    32768
280
               0
281
               0
  0
CLASS
  1
OBJECT_PTR
  2
CAseDLPNTableRecord
  3
"ASE-LPNTableRecord"
 90
    32769
280
               0
281
               0
  0
CLASS
  1
LAYOUT
  2
AcDbLayout
  3
AutoCAD 2000
 90
        0
280
               0
281
               0
  0
CLASS
  1
PLOTSETTINGS
  2
AcDbPlotSettings
  3
AutoCAD 2000
 90
    32768
280
               0
281
               0
  0
CLASS
  1
ACDBDICTIONARYWDFLT
  2
AcDbDictionaryWithDefault
  3
AutoCAD 2000
 90
        0
280
               0
281
               0
  0
CLASS
  1
ACDBPLACEHOLDER
  2
AcDbPlaceHolder
  3
AutoCAD 2000
 90
        0
280
               0
281
               0
  0
CLASS
  1
VBA_PROJECT
  2
AcDbVbaProject
  3
acadvba
 90
    32768
280
               0
281
               0
  0
CLASS
  1
WIPEOUT
  2
AcDbWipeout
  3
WipeOut|AutoCAD Express Tool|expresstools@autodesk.com
 90
      127
280
               0
281
               1
  0
CLASS
  1
WIPEOUTVARIABLES
  2
AcDbWipeoutVariables
  3
WipeOut|AutoCAD Express Tool|expresstools@autodesk.com
 90
        0
280
               0
281
               0
  0
CLASS
  1
RTEXT
  2
RText
  3
RText|AutoCAD Express Tool|expresstools@autodesk.com
 90
    32768
280
               0
281
               1
  0
CLASS
  1
ARCALIGNEDTEXT
  2
AcDbArcAlignedText
  3
ATEXT|AutoCAD Express Tool|expresstools@autodesk.com
 90
    32768
280
               0
281
               1
  0
ENDSEC
  0
SECTION
  2
TABLES
  0
TABLE
  2
VPORT
  5
7
100
AcDbSymbolTable
 70
               1
  0
VPORT
  5
15
100
AcDbSymbolTableRecord
100
AcDbViewportTableRecord
  2
*ACTIVE
 70
               0
 10
0.0
 20
0.0
 11
1.0
 21
1.0
 12
25.700000000000045
 22
16.600000000000023
 13
0.0
 23
0.0
 14
1.0
 24
1.0
 15
0.0
 25
0.0
 16
0.0
 26
0.0
 36
1.0
 17
0.0
 27
0.0
 37
0.0
 40
285.0
 41
0.688564
 42
50.0
 43
0.0
 44
0.0
 50
0.0
 51
0.0
 71
               0
 72
            2000
 73
               1
 74
               1
 75
               0
 76
               0
 77
               0
 78
               0
281
               0
 65
               0
110
0.0
120
0.0
130
0.0
111
1.0
121
0.0
131
0.0
112
0.0
122
1.0
132
0.0
345
0
346
0
 79
               0
146
0.0
  0
ENDTAB
  0
TABLE
  2
LTYPE
  5
4
100
AcDbSymbolTable
 70
              16
  0
LTYPE
  5
11
100
AcDbSymbolTableRecord
100
AcDbLinetypeTableRecord
  2
ByBlock
 70
              64
  3

 72
              65
 73
               0
 40
0.0
  0
LTYPE
  5
12
100
AcDbSymbolTableRecord
100
AcDbLinetypeTableRecord
  2
ByLayer
 70
              64
  3

 72
              65
 73
               0
 40
0.0
  0
LTYPE
  5
13
100
AcDbSymbolTableRecord
100
AcDbLinetypeTableRecord
  2
Continuous
 70
              64
  3
Solid line
 72
              65
 73
               0
 40
0.0
  0
LTYPE
  5
39
100
AcDbSymbolTableRecord
100
AcDbLinetypeTableRecord
  2
STYLE_01
 70
               0
  3

 72
              65
 73
               4
 40
0.7874015748031495
 49
0.4921259842519685
 74
               0
 49
-0.0984251968503937
 74
               0
 49
0.0984251968503936
 74
               0
 49
-0.0984251968503937
 74
               0
  0
LTYPE
  5
3A
100
AcDbSymbolTableRecord
100
AcDbLinetypeTableRecord
  2
STYLE_02
 70
               0
  3

 72
              65
 73
               6
 40
0.3149606299212598
 49
0.1771653543307087
 74
               0
 49
-0.0196850393700787
 74
               0
 49
0.0393700787401575
 74
               0
 49
-0.0196850393700788
 74
               0
 49
0.0393700787401575
 74
               0
 49
-0.0196850393700788
 74
               0
  0
LTYPE
  5
3B
100
AcDbSymbolTableRecord
100
AcDbLinetypeTableRecord
  2
STYLE_03
 70
               0
  3

 72
              65
 73
               6
 40
0.5983999999999999
 49
0.3366
 74
               0
 49
-0.0374
 74
               0
 49
0.0748
 74
               0
 49
-0.0374
 74
               0
 49
0.0748
 74
               0
 49
-0.0374
 74
               0
  0
LTYPE
  5
3C
100
AcDbSymbolTableRecord
100
AcDbLinetypeTableRecord
  2
STYLE_04
 70
               0
  3

 72
              65
 73
               2
 40
0.611084
 49
0.52777
 74
               0
 49
-0.083314
 74
               0
  0
LTYPE
  5
3D
100
AcDbSymbolTableRecord
100
AcDbLinetypeTableRecord
  2
STYLE_05
 70
               0
  3

 72
              65
 73
               2
 40
0.083312
 49
0.02777
 74
               0
 49
-0.055542
 74
               0
  0
LTYPE
  5
3E
100
AcDbSymbolTableRecord
100
AcDbLinetypeTableRecord
  2
STYLE_06
 70
               0
  3

 72
              65
 73
               4
 40
0.416656
 49
0.25
 74
               0
 49
-0.083312
 74
               0
 49
0.027772
 74
               0
 49
-0.055572
 74
               0
  0
LTYPE
  5
3F
100
AcDbSymbolTableRecord
100
AcDbLinetypeTableRecord
  2
STYLE_07
 70
               0
  3

 72
              65
 73
               6
 40
0.75
 49
0.25
 74
               0
 49
-0.083312
 74
               0
 49
0.2500000000000001
 74
               0
 49
-0.083344
 74
               0
 49
0.027772
 74
               0
 49
-0.055572
 74
               0
  0
LTYPE
  5
40
100
AcDbSymbolTableRecord
100
AcDbLinetypeTableRecord
  2
STYLE_08
 70
               0
  3

 72
              65
 73
               6
 40
0.5
 49
0.25
 74
               0
 49
-0.083312
 74
               0
 49
0.027772
 74
               0
 49
-0.055572
 74
               0
 49
0.027772
 74
               0
 49
-0.055572
 74
               0
  0
LTYPE
  5
41
100
AcDbSymbolTableRecord
100
AcDbLinetypeTableRecord
  2
STYLE_09
 70
               0
  3

 72
              65
 73
               4
 40
2.0
 49
1.5
 74
               0
 49
-0.1111139999999999
 74
               0
 49
0.2777720000000001
 74
               0
 49
-0.1111139999999999
 74
               0
  0
LTYPE
  5
42
100
AcDbSymbolTableRecord
100
AcDbLinetypeTableRecord
  2
STYLE_10
 70
               0
  3

 72
              65
 73
               6
 40
2.375
 49
1.5
 74
               0
 49
-0.1111139999999999
 74
               0
 49
0.2777720000000001
 74
               0
 49
-0.1111139999999999
 74
               0
 49
0.25
 74
               0
 49
-0.125
 74
               0
  0
LTYPE
  5
43
100
AcDbSymbolTableRecord
100
AcDbLinetypeTableRecord
  2
STYLE_11
 70
               0
  3

 72
              65
 73
               6
 40
0.5983999999999999
 49
0.3366
 74
               0
 49
-0.0374
 74
               0
 49
0.0748
 74
               0
 49
-0.0374
 74
               0
 49
0.0748
 74
               0
 49
-0.0374
 74
               0
  0
LTYPE
  5
44
100
AcDbSymbolTableRecord
100
AcDbLinetypeTableRecord
  2
STYLE_12
 70
               0
  3

 72
              65
 73
               4
 40
0.4487999999999999
 49
0.2805
 74
               0
 49
-0.0561
 74
               0
 49
0.0561
 74
               0
 49
-0.0561
 74
               0
  0
LTYPE
  5
45
100
AcDbSymbolTableRecord
100
AcDbLinetypeTableRecord
  2
STYLE_13
 70
               0
  3

 72
              65
 73
               2
 40
0.1496
 49
0.0748
 74
               0
 49
-0.0748
 74
               0
  0
ENDTAB
  0
TABLE
  2
LAYER
  5
2
100
AcDbSymbolTable
 70
              62
  0
LAYER
  5
14
100
AcDbSymbolTableRecord
100
AcDbLayerTableRecord
  2
0
 70
               0
 62
               9
  6
Continuous
290
               1
370
              15
390
1D
  0
LAYER
  5
46
100
AcDbSymbolTableRecord
100
AcDbLayerTableRecord
  2
Defpoints
 70
               0
 62
               7
  6
Continuous
290
               0
370
              -3
390
1D
  0
LAYER
  5
47
100
AcDbSymbolTableRecord
100
AcDbLayerTableRecord
  2
一般
 70
               0
 62
               7
  6
Continuous
290
               1
370
               5
390
1D
  0
LAYER
  5
48
100
AcDbSymbolTableRecord
100
AcDbLayerTableRecord
  2
寸法
 70
               0
 62
               7
  6
Continuous
290
               1
370
               5
390
1D
  0
LAYER
  5
49
100
AcDbSymbolTableRecord
100
AcDbLayerTableRecord
  2
FORMAT
 70
               0
 62
               7
  6
Continuous
290
               1
370
              15
390
1D
  0
LAYER
  5
4A
100
AcDbSymbolTableRecord
100
AcDbLayerTableRecord
  2
DETAIL
 70
               0
 62
               7
  6
Continuous
290
               1
370
              15
390
1D
  0
LAYER
  5
4B
100
AcDbSymbolTableRecord
100
AcDbLayerTableRecord
  2
ALL_FEATURES
 70
               0
 62
               7
  6
Continuous
290
               1
370
              15
390
1D
  0
LAYER
  5
4C
100
AcDbSymbolTableRecord
100
AcDbLayerTableRecord
  2
FEATURES
 70
               0
 62
               7
  6
Continuous
290
               1
370
              15
390
1D
  0
LAYER
  5
4D
100
AcDbSymbolTableRecord
100
AcDbLayerTableRecord
  2
ROUNDS
 70
               0
 62
               7
  6
Continuous
290
               1
370
              15
390
1D
  0
LAYER
  5
4E
100
AcDbSymbolTableRecord
100
AcDbLayerTableRecord
  2
CHAMFERS
 70
               0
 62
               7
  6
Continuous
290
               1
370
              15
390
1D
  0
LAYER
  5
4F
100
AcDbSymbolTableRecord
100
AcDbLayerTableRecord
  2
SURFACES
 70
               0
 62
               7
  6
Continuous
290
               1
370
              15
390
1D
  0
LAYER
  5
50
100
AcDbSymbolTableRecord
100
AcDbLayerTableRecord
  2
DEFAULT_1
 70
               0
 62
               7
  6
STYLE_01
290
               1
370
              15
390
1D
  0
LAYER
  5
51
100
AcDbSymbolTableRecord
100
AcDbLayerTableRecord
  2
DEFAULT_2
 70
               0
 62
               5
  6
STYLE_02
290
               1
370
              15
390
1D
  0
LAYER
  5
52
100
AcDbSymbolTableRecord
100
AcDbLayerTableRecord
  2
DEFAULT_3
 70
               0
 62
               7
  6
STYLE_03
290
               1
370
              15
390
1D
  0
LAYER
  5
53
100
AcDbSymbolTableRecord
100
AcDbLayerTableRecord
  2
_2D_DELETED_OBJS
 70
               0
 62
               7
  6
Continuous
290
               1
370
              15
390
1D
  0
LAYER
  5
54
100
AcDbSymbolTableRecord
100
AcDbLayerTableRecord
  2
_BLACK_HOLE
 70
               0
 62
               7
  6
Continuous
290
               1
370
              15
390
1D
  0
LAYER
  5
55
100
AcDbSymbolTableRecord
100
AcDbLayerTableRecord
  2
ALL_AXIS
 70
               0
 62
               7
  6
Continuous
290
               1
370
              15
390
1D
  0
LAYER
  5
56
100
AcDbSymbolTableRecord
100
AcDbLayerTableRecord
  2
ALL_GEOM_FEAT
 70
               0
 62
               7
  6
Continuous
290
               1
370
              15
390
1D
  0
LAYER
  5
57
100
AcDbSymbolTableRecord
100
AcDbLayerTableRecord
  2
AXES
 70
               0
 62
               7
  6
Continuous
290
               1
370
              15
390
1D
  0
LAYER
  5
58
100
AcDbSymbolTableRecord
100
AcDbLayerTableRecord
  2
AXIS
 70
               0
 62
               7
  6
Continuous
290
               1
370
              15
390
1D
  0
LAYER
  5
59
100
AcDbSymbolTableRecord
100
AcDbLayerTableRecord
  2
COORDINATES
 70
               0
 62
               7
  6
Continuous
290
               1
370
              15
390
1D
  0
LAYER
  5
5A
100
AcDbSymbolTableRecord
100
AcDbLayerTableRecord
  2
COSM_SKETCH
 70
               0
 62
               7
  6
Continuous
290
               1
370
              15
390
1D
  0
LAYER
  5
5B
100
AcDbSymbolTableRecord
100
AcDbLayerTableRecord
  2
CSYS
 70
               0
 62
               7
  6
Continuous
290
               1
370
              15
390
1D
  0
LAYER
  5
5C
100
AcDbSymbolTableRecord
100
AcDbLayerTableRecord
  2
CURVES
 70
               0
 62
               7
  6
Continuous
290
               1
370
              15
390
1D
  0
LAYER
  5
5D
100
AcDbSymbolTableRecord
100
AcDbLayerTableRecord
  2
DIVOT_CURVES
 70
               0
 62
               7
  6
Continuous
290
               1
370
              15
390
1D
  0
LAYER
  5
5E
100
AcDbSymbolTableRecord
100
AcDbLayerTableRecord
  2
GLOSS_SURFACES
 70
               0
 62
               7
  6
Continuous
290
               1
370
              15
390
1D
  0
LAYER
  5
5F
100
AcDbSymbolTableRecord
100
AcDbLayerTableRecord
  2
INTFCLR_1
 70
               0
 62
               7
  6
Continuous
290
               1
370
              15
390
1D
  0
LAYER
  5
60
100
AcDbSymbolTableRecord
100
AcDbLayerTableRecord
  2
INTFCLR_10405
 70
               0
 62
               7
  6
Continuous
290
               1
370
              15
390
1D
  0
LAYER
  5
61
100
AcDbSymbolTableRecord
100
AcDbLayerTableRecord
  2
INTFCLR_4
 70
               0
 62
               7
  6
Continuous
290
               1
370
              15
390
1D
  0
LAYER
  5
62
100
AcDbSymbolTableRecord
100
AcDbLayerTableRecord
  2
INTFCLR_5
 70
               0
 62
               7
  6
Continuous
290
               1
370
              15
390
1D
  0
LAYER
  5
63
100
AcDbSymbolTableRecord
100
AcDbLayerTableRecord
  2
INTFCLR_6
 70
               0
 62
               7
  6
Continuous
290
               1
370
              15
390
1D
  0
LAYER
  5
64
100
AcDbSymbolTableRecord
100
AcDbLayerTableRecord
  2
INTF_1
 70
               0
 62
               7
  6
Continuous
290
               1
370
              15
390
1D
  0
LAYER
  5
65
100
AcDbSymbolTableRecord
100
AcDbLayerTableRecord
  2
INTF_10
 70
               0
 62
               7
  6
Continuous
290
               1
370
              15
390
1D
  0
LAYER
  5
66
100
AcDbSymbolTableRecord
100
AcDbLayerTableRecord
  2
INTF_2
 70
               0
 62
               7
  6
Continuous
290
               1
370
              15
390
1D
  0
LAYER
  5
67
100
AcDbSymbolTableRecord
100
AcDbLayerTableRecord
  2
INTF_3
 70
               0
 62
               7
  6
Continuous
290
               1
370
              15
390
1D
  0
LAYER
  5
68
100
AcDbSymbolTableRecord
100
AcDbLayerTableRecord
  2
INTF_4
 70
               0
 62
               7
  6
Continuous
290
               1
370
              15
390
1D
  0
LAYER
  5
69
100
AcDbSymbolTableRecord
100
AcDbLayerTableRecord
  2
INTF_5
 70
               0
 62
               7
  6
Continuous
290
               1
370
              15
390
1D
  0
LAYER
  5
6A
100
AcDbSymbolTableRecord
100
AcDbLayerTableRecord
  2
INTF_6
 70
               0
 62
               7
  6
Continuous
290
               1
370
              15
390
1D
  0
LAYER
  5
6B
100
AcDbSymbolTableRecord
100
AcDbLayerTableRecord
  2
INTF_8
 70
               0
 62
               7
  6
Continuous
290
               1
370
              15
390
1D
  0
LAYER
  5
6C
100
AcDbSymbolTableRecord
100
AcDbLayerTableRecord
  2
INTF_9
 70
               0
 62
               7
  6
Continuous
290
               1
370
              15
390
1D
  0
LAYER
  5
6D
100
AcDbSymbolTableRecord
100
AcDbLayerTableRecord
  2
INTF_BLUE
 70
               0
 62
               7
  6
Continuous
290
               1
370
              15
390
1D
  0
LAYER
  5
6E
100
AcDbSymbolTableRecord
100
AcDbLayerTableRecord
  2
INTF_CYAN
 70
               0
 62
               7
  6
Continuous
290
               1
370
              15
390
1D
  0
LAYER
  5
6F
100
AcDbSymbolTableRecord
100
AcDbLayerTableRecord
  2
INTF_GREEN
 70
               0
 62
               7
  6
Continuous
290
               1
370
              15
390
1D
  0
LAYER
  5
70
100
AcDbSymbolTableRecord
100
AcDbLayerTableRecord
  2
INTF_MAGENTA
 70
               0
 62
               7
  6
Continuous
290
               1
370
              15
390
1D
  0
LAYER
  5
71
100
AcDbSymbolTableRecord
100
AcDbLayerTableRecord
  2
INTF_YELLOW
 70
               0
 62
               7
  6
Continuous
290
               1
370
              15
390
1D
  0
LAYER
  5
72
100
AcDbSymbolTableRecord
100
AcDbLayerTableRecord
  2
PLANES
 70
               0
 62
               7
  6
Continuous
290
               1
370
              15
390
1D
  0
LAYER
  5
73
100
AcDbSymbolTableRecord
100
AcDbLayerTableRecord
  2
POINTS
 70
               0
 62
               7
  6
Continuous
290
               1
370
              15
390
1D
  0
LAYER
  5
74
100
AcDbSymbolTableRecord
100
AcDbLayerTableRecord
  2
QUILTS
 70
               0
 62
               7
  6
Continuous
290
               1
370
              15
390
1D
  0
LAYER
  5
75
100
AcDbSymbolTableRecord
100
AcDbLayerTableRecord
  2
RIBS
 70
               0
 62
               7
  6
Continuous
290
               1
370
              15
390
1D
  0
LAYER
  5
76
100
AcDbSymbolTableRecord
100
AcDbLayerTableRecord
  2
TEXTURED_SURFACES
 70
               0
 62
               7
  6
Continuous
290
               1
370
              15
390
1D
  0
LAYER
  5
77
100
AcDbSymbolTableRecord
100
AcDbLayerTableRecord
  2
THREADS
 70
               0
 62
               7
  6
Continuous
290
               1
370
              15
390
1D
  0
LAYER
  5
78
100
AcDbSymbolTableRecord
100
AcDbLayerTableRecord
  2
XSEC_DATUMS
 70
               0
 62
               7
  6
Continuous
290
               1
370
              15
390
1D
  0
LAYER
  5
79
100
AcDbSymbolTableRecord
100
AcDbLayerTableRecord
  2
TB-TXT
 70
               0
 62
               3
  6
Continuous
290
               1
370
              15
390
1D
  0
LAYER
  5
7A
100
AcDbSymbolTableRecord
100
AcDbLayerTableRecord
  2
DIM
 70
               0
 62
               2
  6
Continuous
290
               1
370
              15
390
1D
  0
LAYER
  5
7B
100
AcDbSymbolTableRecord
100
AcDbLayerTableRecord
  2
DEFPOINTS
 70
               0
 62
               7
  6
Continuous
290
               0
370
              15
390
1D
  0
LAYER
  5
7C
100
AcDbSymbolTableRecord
100
AcDbLayerTableRecord
  2
PART
 70
               0
 62
               4
  6
Continuous
290
               1
370
              15
390
1D
  0
LAYER
  5
7D
100
AcDbSymbolTableRecord
100
AcDbLayerTableRecord
  2
OUTLINE
 70
               0
 62
               7
  6
Continuous
290
               1
370
              15
390
1D
  0
LAYER
  5
7E
100
AcDbSymbolTableRecord
100
AcDbLayerTableRecord
  2
SILK
 70
               0
 62
               9
  6
Continuous
290
               1
370
              15
390
1D
  0
LAYER
  5
7F
100
AcDbSymbolTableRecord
100
AcDbLayerTableRecord
  2
TXT
 70
               0
 62
               3
  6
Continuous
290
               1
370
              15
390
1D
  0
LAYER
  5
80
100
AcDbSymbolTableRecord
100
AcDbLayerTableRecord
  2
補助グリッド
 70
               0
 62
             203
  6
Continuous
290
               1
370
              13
390
1D
  0
LAYER
  5
81
100
AcDbSymbolTableRecord
100
AcDbLayerTableRecord
  2
SILK1
 70
               0
 62
               7
  6
Continuous
290
               1
370
              15
390
1D
  0
LAYER
  5
82
100
AcDbSymbolTableRecord
100
AcDbLayerTableRecord
  2
Dimensions
 70
               0
 62
              32
  6
Continuous
290
               1
370
              25
390
1D
  0
ENDTAB
  0
TABLE
  2
STYLE
  5
3
100
AcDbSymbolTable
 70
               5
  0
STYLE
  5
17
100
AcDbSymbolTableRecord
100
AcDbTextStyleTableRecord
  2
Standard
 70
               0
 40
0.0
 41
1.0
 50
0.0
 71
               0
 42
0.0
  3
txt
  4
BIGFONT.SHX
  0
STYLE
  5
35
100
AcDbSymbolTableRecord
100
AcDbTextStyleTableRecord
  2
ＭＳ ゴシック
 70
               0
 40
0.0
 41
1.0
 50
0.0
 71
               0
 42
0.0
  3

  4
ＭＳ ゴシック
1001
ACAD
1000
ＭＳ ゴシック
1071
        0
  0
STYLE
  5
36
100
AcDbSymbolTableRecord
100
AcDbTextStyleTableRecord
  2
小塚ゴシック Pro H (italic)
 70
               0
 40
0.0
 41
1.0
 50
0.0
 71
               0
 42
0.0
  3

  4
小塚ゴシック Pro H
1001
ACAD
1000
小塚ゴシック Pro H
1071
 16777216
  0
STYLE
  5
37
100
AcDbSymbolTableRecord
100
AcDbTextStyleTableRecord
  2
小塚ゴシック Pro M
 70
               0
 40
0.0
 41
1.0
 50
0.0
 71
               0
 42
0.0
  3

  4
小塚ゴシック Pro M
1001
ACAD
1000
小塚ゴシック Pro M
1071
        0
  0
STYLE
  5
38
100
AcDbSymbolTableRecord
100
AcDbTextStyleTableRecord
  2
中ゴシック体
 70
               0
 40
0.0
 41
1.0
 50
0.0
 71
               0
 42
0.0
  3

  4
中ゴシック体
1001
ACAD
1000
中ゴシック体
1071
        0
  0
ENDTAB
  0
TABLE
  2
VIEW
  5
5
100
AcDbSymbolTable
 70
               0
  0
ENDTAB
  0
TABLE
  2
UCS
  5
6
100
AcDbSymbolTable
 70
               0
  0
ENDTAB
  0
TABLE
  2
APPID
  5
8
100
AcDbSymbolTable
 70
               1
  0
APPID
  5
16
100
AcDbSymbolTableRecord
100
AcDbRegAppTableRecord
  2
ACAD
 70
               0
  0
ENDTAB
  0
TABLE
  2
DIMSTYLE
  5
9
100
AcDbSymbolTable
 70
               2
100
AcDbDimStyleTable
 71
               0
  0
DIMSTYLE
105
18
100
AcDbSymbolTableRecord
100
AcDbDimStyleTableRecord
  2
Standard
 70
               0
  3

  4

 40
1.0
 41
0.18
 42
0.0625
 43
0.38
 44
0.18
 45
0.0
 46
0.0
 47
0.0
 48
0.0
 71
               0
 72
               0
 73
               1
 74
               1
 75
               0
 76
               0
 77
               0
 78
               0
 79
               0
140
0.18
141
0.09
142
0.0
143
25.399999999999999
144
1.0
145
0.0
146
1.0
147
0.09
148
0.0
170
               0
171
               2
172
               0
173
               0
174
               0
175
               0
176
               0
177
               0
178
               0
179
               0
271
               4
272
               4
273
               2
274
               2
275
               0
276
               0
277
               2
278
              46
279
               0
280
               0
281
               0
282
               0
283
               1
284
               0
285
               0
286
               0
288
               0
340
17
341
0
342
0
343
0
344
0
371
              -2
372
              -2
  0
DIMSTYLE
105
8C
100
AcDbSymbolTableRecord
100
AcDbDimStyleTableRecord
  2
Arch
 70
               0
  3
<>
  4
[]
 40
1.0
 41
2.2448242187499998
 42
1.5874999999999999
 43
10.16
 44
3.1749999999999998
 45
0.0
 46
1.5874999999999999
 47
0.0
 48
0.0
 71
               0
 72
               0
 73
               0
 74
               0
 75
               0
 76
               0
 77
               1
 78
              11
 79
               0
140
4.8865234375000002
141
0.0
142
0.0
143
0.0393700787401575
144
1.0
145
0.0
146
0.8
147
1.5874999999999999
148
0.0
170
               0
171
               3
172
               1
173
               0
174
               1
175
               0
176
               0
177
               0
178
               0
179
               2
271
               1
272
               1
273
               4
274
               2
275
               0
276
               2
277
               2
278
              46
279
               0
280
               0
281
               0
282
               0
283
               1
284
              11
285
              15
286
              15
288
               0
340
35
341
88
342
83
343
0
344
0
371
              -2
372
              -2
  0
ENDTAB
  0
TABLE
  2
BLOCK_RECORD
  5
1
100
AcDbSymbolTable
 70
              19
  0
BLOCK_RECORD
  5
A
100
AcDbSymbolTableRecord
100
AcDbBlockTableRecord
  2
*MODEL_SPACE
340
20
  0
BLOCK_RECORD
  5
B
100
AcDbSymbolTableRecord
100
AcDbBlockTableRecord
  2
*PAPER_SPACE
340
21
  0
BLOCK_RECORD
  5
83
100
AcDbSymbolTableRecord
100
AcDbBlockTableRecord
  2
VW_SLASH
340
0
  0
BLOCK_RECORD
  5
88
100
AcDbSymbolTableRecord
100
AcDbBlockTableRecord
  2
VW_FILLEDARROW
340
0
  0
BLOCK_RECORD
  5
24
100
AcDbSymbolTableRecord
100
AcDbBlockTableRecord
  2
グループ
340
0
102
{BLKREFS
331
9A
102
}
  0
BLOCK_RECORD
  5
25
100
AcDbSymbolTableRecord
100
AcDbBlockTableRecord
  2
グループ-1
340
0
102
{BLKREFS
331
371
102
}
  0
BLOCK_RECORD
  5
26
100
AcDbSymbolTableRecord
100
AcDbBlockTableRecord
  2
グループ-2
340
0
102
{BLKREFS
331
A7
102
}
  0
BLOCK_RECORD
  5
27
100
AcDbSymbolTableRecord
100
AcDbBlockTableRecord
  2
グループ-3
340
0
102
{BLKREFS
331
B0
102
}
  0
BLOCK_RECORD
  5
28
100
AcDbSymbolTableRecord
100
AcDbBlockTableRecord
  2
グループ-4
340
0
102
{BLKREFS
331
3E3
102
}
  0
BLOCK_RECORD
  5
29
100
AcDbSymbolTableRecord
100
AcDbBlockTableRecord
  2
グループ-5
340
0
102
{BLKREFS
331
D9
102
}
  0
BLOCK_RECORD
  5
2A
100
AcDbSymbolTableRecord
100
AcDbBlockTableRecord
  2
グループ-6
340
0
102
{BLKREFS
331
13C
102
}
  0
BLOCK_RECORD
  5
2B
100
AcDbSymbolTableRecord
100
AcDbBlockTableRecord
  2
グループ-7
340
0
102
{BLKREFS
331
3E4
102
}
  0
BLOCK_RECORD
  5
2C
100
AcDbSymbolTableRecord
100
AcDbBlockTableRecord
  2
グループ-8
340
0
102
{BLKREFS
331
3E5
102
}
  0
BLOCK_RECORD
  5
2D
100
AcDbSymbolTableRecord
100
AcDbBlockTableRecord
  2
グループ-9
340
0
102
{BLKREFS
331
2F5
102
}
  0
BLOCK_RECORD
  5
2E
100
AcDbSymbolTableRecord
100
AcDbBlockTableRecord
  2
グループ-10
340
0
102
{BLKREFS
331
2F6
102
}
  0
BLOCK_RECORD
  5
2F
100
AcDbSymbolTableRecord
100
AcDbBlockTableRecord
  2
グループ-11
340
0
102
{BLKREFS
331
3E6
102
}
  0
BLOCK_RECORD
  5
30
100
AcDbSymbolTableRecord
100
AcDbBlockTableRecord
  2
*D14
340
0
  0
BLOCK_RECORD
  5
31
100
AcDbSymbolTableRecord
100
AcDbBlockTableRecord
  2
*D15
340
0
  0
BLOCK_RECORD
  5
32
100
AcDbSymbolTableRecord
100
AcDbBlockTableRecord
  2
*D16
340
0
  0
BLOCK_RECORD
  5
33
100
AcDbSymbolTableRecord
100
AcDbBlockTableRecord
  2
*D17
340
0
  0
BLOCK_RECORD
  5
34
100
AcDbSymbolTableRecord
100
AcDbBlockTableRecord
  2
*D18
340
0
  0
ENDTAB
  0
ENDSEC
  0
SECTION
  2
BLOCKS
  0
BLOCK
  5
D
100
AcDbEntity
  8
0
100
AcDbBlockBegin
  2
*MODEL_SPACE
 70
               0
 10
0.0
 20
0.0
 30
0.0
  3
*MODEL_SPACE
  1

  0
ENDBLK
  5
E
100
AcDbEntity
  8
0
100
AcDbBlockEnd
  0
BLOCK
  5
F
100
AcDbEntity
 67
               1
  8
0
100
AcDbBlockBegin
  2
*PAPER_SPACE
 70
               0
 10
0.0
 20
0.0
 30
0.0
  3
*PAPER_SPACE
  1

  0
ENDBLK
  5
10
100
AcDbEntity
 67
               1
  8
0
100
AcDbBlockEnd
  0
BLOCK
  5
84
100
AcDbEntity
  8
0
370
              -2
  6
ByBlock
 62
               0
100
AcDbBlockBegin
  2
VW_SLASH
 70
               0
 10
0.0
 20
0.0
 30
0.0
  3
VW_SLASH
  1

  0
LINE
  5
85
100
AcDbEntity
  8
0
370
              -2
  6
ByBlock
 62
               0
100
AcDbLine
 10
0.0
 20
0.0
 30
0.0
 11
-1.0
 21
0.0
 31
0.0
  0
LINE
  5
86
100
AcDbEntity
  8
0
370
              20
  6
ByBlock
 62
               0
100
AcDbLine
 10
-0.499877537989201
 20
-0.4998775379892008
 30
0.0
 11
0.499877537989201
 21
0.4998775379892008
 31
0.0
  0
ENDBLK
  5
87
100
AcDbEntity
  8
0
100
AcDbBlockEnd
  0
BLOCK
  5
89
100
AcDbEntity
  8
0
370
              -2
  6
ByBlock
 62
               0
100
AcDbBlockBegin
  2
VW_FILLEDARROW
 70
               0
 10
0.0
 20
0.0
 30
0.0
  3
VW_FILLEDARROW
  1

  0
SOLID
  5
8A
100
AcDbEntity
  8
0
370
              -2
 62
               0
100
AcDbTrace
 10
0.0
 20
0.0
 30
0.0
 11
-1.4138671875
 21
-0.3788445710954878
 31
0.0
 12
-1.4138671875
 22
0.3788445710954881
 32
0.0
 13
-1.4138671875
 23
0.3788445710954881
 33
0.0
  0
ENDBLK
  5
8B
100
AcDbEntity
  8
0
100
AcDbBlockEnd
  0
BLOCK
  5
8D
100
AcDbEntity
  8
一般
100
AcDbBlockBegin
  2
グループ
 70
               0
 10
0.0
 20
0.0
 30
0.0
  3
グループ
  1

  0
LWPOLYLINE
  5
8E
100
AcDbEntity
  8
一般
370
               5
  6
Continuous
 62
               7
100
AcDbPolyline
 90
        4
 70
             129
 10
121.74499000000004
 20
-124.88823999999998
 42
-0.4142135623730855
 10
122.61402000000005
 20
-124.01920999999999
 42
-0.4142135623731046
 10
123.48305000000006
 20
-124.88823999999998
 42
-0.4142135623730903
 10
122.61402000000005
 20
-125.75726999999998
 42
-0.4142135623731046
  0
POLYLINE
  5
8F
100
AcDbEntity
  8
一般
370
               5
  6
Continuous
 62
               7
100
AcDb2dPolyline
 66
               1
 10
0.0
 20
0.0
 30
0.0
 70
               1
 75
               5
  0
VERTEX
  5
90
100
AcDbEntity
  8
一般
370
               5
  6
Continuous
 62
               7
100
AcDbVertex
100
AcDb2dVertex
 10
127.52407000000007
 20
-126.66978999999998
 30
0.0
  0
VERTEX
  5
91
100
AcDbEntity
  8
一般
370
               5
  6
Continuous
 62
               7
100
AcDbVertex
100
AcDb2dVertex
 10
127.52407000000007
 20
-123.19363999999999
 30
0.0
  0
VERTEX
  5
92
100
AcDbEntity
  8
一般
370
               5
  6
Continuous
 62
               7
100
AcDbVertex
100
AcDb2dVertex
 10
124.91697000000006
 20
-124.06265999999999
 30
0.0
  0
VERTEX
  5
93
100
AcDbEntity
  8
一般
370
               5
  6
Continuous
 62
               7
100
AcDbVertex
100
AcDb2dVertex
 10
124.91697000000006
 20
-125.80073999999999
 30
0.0
  0
SEQEND
  5
94
100
AcDbEntity
  8
一般
370
               5
  6
Continuous
 62
               7
  0
LWPOLYLINE
  5
95
100
AcDbEntity
  8
一般
370
               5
  6
Continuous
 62
               7
100
AcDbPolyline
 90
        4
 70
             129
 10
120.87594000000006
 20
-124.88825
 42
-0.414213562373095
 10
122.61402000000005
 20
-123.15017
 42
-0.4142135623730974
 10
124.35210000000005
 20
-124.88825
 42
-0.414213562373095
 10
122.61402000000005
 20
-126.62633
 42
-0.4142135623730927
  0
LINE
  5
96
100
AcDbEntity
  8
一般
370
               5
  6
Continuous
 62
               7
100
AcDbLine
 10
120.48487000000004
 20
-124.93169999999998
 30
0.0
 11
127.91513000000005
 21
-124.93169999999998
 31
0.0
  0
LINE
  5
97
100
AcDbEntity
  8
一般
370
               5
  6
Continuous
 62
               7
100
AcDbLine
 10
122.61401000000005
 20
-122.84601999999998
 30
0.0
 11
122.61401000000005
 21
-126.97394
 31
0.0
  0
ENDBLK
  5
98
100
AcDbEntity
  8
一般
100
AcDbBlockEnd
  0
BLOCK
  5
99
100
AcDbEntity
  8
一般
100
AcDbBlockBegin
  2
グループ-1
 70
               0
 10
0.0
 20
0.0
 30
0.0
  3
グループ-1
  1

  0
INSERT
  5
9A
100
AcDbEntity
  8
一般
 62
               7
100
AcDbBlockReference
  2
グループ
 10
0.0
 20
0.0
 30
0.0
  0
ENDBLK
  5
9B
100
AcDbEntity
  8
一般
100
AcDbBlockEnd
  0
BLOCK
  5
9C
100
AcDbEntity
  8
0
100
AcDbBlockBegin
  2
グループ-2
 70
               0
 10
0.0
 20
0.0
 30
0.0
  3
グループ-2
  1

  0
WIPEOUT
  5
9D
100
AcDbEntity
  8
0
370
              15
  6
Continuous
 62
               7
 92
        0
100
AcDbWipeout
 90
        0
 10
-146.5
 20
-48.307477288111834
 30
0.0
 11
2.0
 21
0.0
 31
0.0
 12
0.0
 22
2.0
 32
0.0
 13
1.0
 23
1.0
340
0
 70
               7
280
               1
281
              50
282
              50
283
               0
360
0
 71
               2
 91
       19
 14
-0.5
 24
0.5
 14
-0.4951847266721927
 24
0.40198285967044
 14
-0.4807852804032251
 24
0.304909677983872
 14
-0.456940335732213
 24
0.209715322745538
 14
-0.4238795325112932
 24
0.1173165676349086
 14
-0.3819212643483496
 24
0.0286032631740021
 14
-0.3314696123025414
 24
-0.0555702330196013
 14
-0.273010453362744
 24
-0.1343932841636466
 14
-0.2071067811865532
 24
-0.2071067811865461
 14
-0.1343932841636502
 24
-0.2730104533627369
 14
-0.0555702330196084
 24
-0.3314696123025449
 14
0.0286032631740056
 24
-0.3819212643483567
 14
0.1173165676349157
 24
-0.4238795325112861
 14
0.209715322745538
 24
-0.4569403357322095
 14
0.304909677983872
 24
-0.4807852804032287
 14
0.40198285967044
 24
-0.4951847266721963
 14
0.5
 24
-0.5
 14
0.5
 24
0.5
 14
-0.5
 24
0.5
  0
ARC
  5
9E
100
AcDbEntity
  8
0
370
              15
  6
Continuous
 62
               7
100
AcDbCircle
 10
-144.5
 20
-48.307477288111834
 30
0.0
 40
2.0
100
AcDbArc
 50
90.0
 51
180.0
  0
WIPEOUT
  5
9F
100
AcDbEntity
  8
0
370
              15
  6
Continuous
 62
               7
 92
        0
100
AcDbWipeout
 90
        0
 10
-37.499999999999986
 20
-48.307477288111834
 30
0.0
 11
2.0
 21
0.0
 31
0.0
 12
0.0
 22
2.0
 32
0.0
 13
1.0
 23
1.0
340
0
 70
               7
280
               1
281
              50
282
              50
283
               0
360
0
 71
               2
 91
       19
 14
-0.5
 24
-0.5
 14
-0.40198285967044
 24
-0.4951847266721963
 14
-0.304909677983872
 24
-0.4807852804032287
 14
-0.209715322745538
 24
-0.4569403357322095
 14
-0.1173165676349086
 24
-0.4238795325112861
 14
-0.0286032631740021
 24
-0.3819212643483567
 14
0.0555702330196013
 24
-0.3314696123025449
 14
0.1343932841636466
 24
-0.2730104533627369
 14
0.2071067811865461
 24
-0.2071067811865461
 14
0.2730104533627369
 24
-0.1343932841636466
 14
0.3314696123025449
 24
-0.0555702330196013
 14
0.3819212643483567
 24
0.0286032631740021
 14
0.4238795325112861
 24
0.1173165676349086
 14
0.4569403357322095
 24
0.209715322745538
 14
0.4807852804032322
 24
0.304909677983872
 14
0.4951847266721963
 24
0.40198285967044
 14
0.5
 24
0.5
 14
-0.5
 24
0.5
 14
-0.5
 24
-0.5
  0
ARC
  5
A0
100
AcDbEntity
  8
0
370
              15
  6
Continuous
 62
               7
100
AcDbCircle
 10
-37.499999999999986
 20
-48.307477288111834
 30
0.0
 40
2.0
100
AcDbArc
 50
0.0
 51
90.0
  0
LINE
  5
A1
100
AcDbEntity
  8
0
370
              15
  6
Continuous
 62
               7
100
AcDbLine
 10
-35.499999999999986
 20
-48.307477288111834
 30
0.0
 11
-35.499999999999986
 21
-88.307477288111841
 31
0.0
  0
LINE
  5
A2
100
AcDbEntity
  8
0
370
              15
  6
Continuous
 62
               7
100
AcDbLine
 10
-35.499999999999986
 20
-88.307477288111841
 30
0.0
 11
-146.5
 21
-88.307477288111841
 31
0.0
  0
LINE
  5
A3
100
AcDbEntity
  8
0
370
              15
  6
Continuous
 62
               7
100
AcDbLine
 10
-146.5
 20
-88.307477288111841
 30
0.0
 11
-146.5
 21
-48.307477288111834
 31
0.0
  0
LINE
  5
A4
100
AcDbEntity
  8
0
370
              15
  6
Continuous
 62
               7
100
AcDbLine
 10
-144.5
 20
-46.307477288111834
 30
0.0
 11
-37.499999999999986
 21
-46.307477288111834
 31
0.0
  0
ENDBLK
  5
A5
100
AcDbEntity
  8
0
100
AcDbBlockEnd
  0
BLOCK
  5
A6
100
AcDbEntity
  8
0
100
AcDbBlockBegin
  2
グループ-3
 70
               0
 10
0.0
 20
0.0
 30
0.0
  3
グループ-3
  1

  0
INSERT
  5
A7
100
AcDbEntity
  8
0
 62
               7
100
AcDbBlockReference
  2
グループ-2
 10
0.0
 20
0.0
 30
0.0
  0
WIPEOUT
  5
A8
100
AcDbEntity
  8
0
370
              15
  6
Continuous
 62
               7
 92
        0
100
AcDbWipeout
 90
        0
 10
-52.749999999999986
 20
-77.557477288111841
 30
0.0
 11
1.5
 21
0.0
 31
0.0
 12
0.0
 22
1.5
 32
0.0
 13
1.0
 23
1.0
340
0
 70
               7
280
               1
281
              50
282
              50
283
               0
360
0
 71
               2
 91
       17
 14
0.4330127018922193
 24
0.25
 14
0.3043807145043616
 24
0.396676670145619
 14
0.1294095225512612
 24
0.4829629131445377
 14
-0.0652630961100253
 24
0.4957224306869061
 14
-0.25
 24
0.4330127018922194
 14
-0.396676670145619
 24
0.3043807145043616
 14
-0.482962913144533
 24
0.1294095225512611
 14
-0.4957224306869061
 24
-0.0652630961100252
 14
-0.4330127018922194
 24
-0.25
 14
-0.3043807145043616
 24
-0.3966766701456189
 14
-0.1294095225512611
 24
-0.4829629131445378
 14
0.0652630961100252
 24
-0.495722430686906
 14
0.25
 24
-0.4330127018922193
 14
0.3966766701456189
 24
-0.3043807145043616
 14
0.482962913144533
 24
-0.1294095225512612
 14
0.495722430686906
 24
0.0652630961100253
 14
0.4330127018922193
 24
0.25
  0
CIRCLE
  5
A9
100
AcDbEntity
  8
0
370
              15
  6
Continuous
 62
               7
100
AcDbCircle
 10
-51.999999999999986
 20
-76.807477288111841
 30
0.0
 40
0.75
  0
ENDBLK
  5
AA
100
AcDbEntity
  8
0
100
AcDbBlockEnd
  0
BLOCK
  5
AB
100
AcDbEntity
  8
0
100
AcDbBlockBegin
  2
グループ-4
 70
               0
 10
0.0
 20
0.0
 30
0.0
  3
グループ-4
  1

  0
WIPEOUT
  5
AC
100
AcDbEntity
  8
0
370
              15
  6
Continuous
 62
               7
 92
        0
100
AcDbWipeout
 90
        0
 10
-139.58400096893314
 20
-57.651477288111849
 30
0.0
 11
23.368001937866211
 21
0.0
 31
0.0
 12
0.0
 22
23.368001937866211
 32
0.0
 13
1.0
 23
1.0
340
0
 70
               7
280
               1
281
              50
282
              50
283
               0
360
0
 71
               2
 91
        5
 14
-0.5
 24
0.5
 14
0.5
 24
0.5
 14
0.5
 24
0.1086956846240762
 14
-0.5
 24
0.1086956846240762
 14
-0.5
 24
0.5
  0
MTEXT
  5
AD
100
AcDbEntity
  8
0
 62
               7
100
AcDbMText
 10
-139.58400096893314
 20
-50.07314916311185
 30
0.0
 40
4.9113281249999989
 41
0.0
 71
               1
 72
               1
  1
PSR4.3J
  7
小塚ゴシック Pro H (italic)
 73
               1
 44
1.1215772179627601
  0
WIPEOUT
  5
AE
100
AcDbEntity
  8
0
370
              15
  6
Continuous
 62
               7
 92
        0
100
AcDbWipeout
 90
        0
 10
-139.60000000000002
 20
-62.923143954778482
 30
0.0
 11
47.067610465155695
 21
0.0
 31
0.0
 12
0.0
 22
47.067610465155695
 32
0.0
 13
1.0
 23
1.0
340
0
 70
               7
280
               1
281
              50
282
              50
283
               0
360
0
 71
               2
 91
        5
 14
-0.5
 24
0.5
 14
0.5
 24
0.5
 14
0.5
 24
0.355194121832203
 14
-0.5
 24
0.355194121832203
 14
-0.5
 24
0.5
  0
MTEXT
  5
AF
100
AcDbEntity
  8
0
 62
               7
100
AcDbMText
 10
-139.60000000000002
 20
-57.314418260334037
 30
0.0
 40
3.7813368055555561
 41
0.0
 71
               1
 72
               1
  1
12VDC Power Supply
  7
小塚ゴシック Pro M
 73
               1
 44
1.0858126383083353
  0
INSERT
  5
B0
100
AcDbEntity
  8
0
 62
               7
100
AcDbBlockReference
  2
グループ-3
 10
0.0
 20
0.0
 30
0.0
  0
ENDBLK
  5
B1
100
AcDbEntity
  8
0
100
AcDbBlockEnd
  0
BLOCK
  5
B2
100
AcDbEntity
  8
0
100
AcDbBlockBegin
  2
グループ-5
 70
               0
 10
0.0
 20
0.0
 30
0.0
  3
グループ-5
  1

  0
POLYLINE
  5
B3
100
AcDbEntity
  8
0
370
              15
  6
Continuous
 62
               7
100
AcDb2dPolyline
 66
               1
 10
0.0
 20
0.0
 30
0.0
 70
               1
 75
               5
  0
VERTEX
  5
B4
100
AcDbEntity
  8
0
370
              15
  6
Continuous
 62
               7
100
AcDbVertex
100
AcDb2dVertex
 10
-146.5
 20
103.5
 30
0.0
  0
VERTEX
  5
B5
100
AcDbEntity
  8
0
370
              15
  6
Continuous
 62
               7
100
AcDbVertex
100
AcDb2dVertex
 10
-35.5
 20
103.5
 30
0.0
  0
VERTEX
  5
B6
100
AcDbEntity
  8
0
370
              15
  6
Continuous
 62
               7
100
AcDbVertex
100
AcDb2dVertex
 10
-35.5
 20
-26.5
 30
0.0
  0
VERTEX
  5
B7
100
AcDbEntity
  8
0
370
              15
  6
Continuous
 62
               7
100
AcDbVertex
100
AcDb2dVertex
 10
-146.5
 20
-26.5
 30
0.0
  0
SEQEND
  5
B8
100
AcDbEntity
  8
0
370
              15
  6
Continuous
 62
               7
  0
POLYLINE
  5
B9
100
AcDbEntity
  8
0
370
              15
  6
Continuous
 62
               7
100
AcDb2dPolyline
 66
               1
 10
0.0
 20
0.0
 30
0.0
 70
               1
 75
               5
  0
VERTEX
  5
BA
100
AcDbEntity
  8
0
370
              15
  6
Continuous
 62
               7
100
AcDbVertex
100
AcDb2dVertex
 10
-146.5
 20
-24.5
 30
0.0
  0
VERTEX
  5
BB
100
AcDbEntity
  8
0
370
              15
  6
Continuous
 62
               7
100
AcDbVertex
100
AcDb2dVertex
 10
-35.5
 20
-24.5
 30
0.0
  0
VERTEX
  5
BC
100
AcDbEntity
  8
0
370
              15
  6
Continuous
 62
               7
100
AcDbVertex
100
AcDb2dVertex
 10
-35.5
 20
-26.5
 30
0.0
  0
VERTEX
  5
BD
100
AcDbEntity
  8
0
370
              15
  6
Continuous
 62
               7
100
AcDbVertex
100
AcDb2dVertex
 10
-146.5
 20
-26.5
 30
0.0
  0
SEQEND
  5
BE
100
AcDbEntity
  8
0
370
              15
  6
Continuous
 62
               7
  0
ENDBLK
  5
BF
100
AcDbEntity
  8
0
100
AcDbBlockEnd
  0
BLOCK
  5
C0
100
AcDbEntity
  8
0
100
AcDbBlockBegin
  2
グループ-6
 70
               0
 10
0.0
 20
0.0
 30
0.0
  3
グループ-6
  1

  0
WIPEOUT
  5
C1
100
AcDbEntity
  8
0
370
              15
  6
Continuous
 62
               7
 92
        0
100
AcDbWipeout
 90
        0
 10
-65.199999999999989
 20
76.892522711888191
 30
0.0
 11
5.9999999999999787
 21
0.0
 31
0.0
 12
0.0
 22
5.9999999999999787
 32
0.0
 13
1.0
 23
1.0
340
0
 70
               7
280
               1
281
              50
282
              50
283
               0
360
0
 71
               2
 91
       17
 14
0.1933633381253361
 24
0.4610971909142662
 14
0.0021901747590855
 24
0.4999952031115147
 14
-0.1893164228602528
 24
0.4627734781028393
 14
-0.3520013112567658
 24
0.3550986861050324
 14
-0.4610971909142662
 24
0.1933633381253385
 14
-0.4999952031115147
 24
0.0021901747590866
 14
-0.4627734781028393
 24
-0.1893164228602516
 14
-0.3550986861050324
 24
-0.3520013112567623
 14
-0.1933633381253374
 24
-0.4610971909142649
 14
-0.0021901747590866
 24
-0.4999952031115136
 14
0.1893164228602516
 24
-0.4627734781028381
 14
0.3520013112567634
 24
-0.3550986861050312
 14
0.4610971909142649
 24
-0.1933633381253374
 14
0.4999952031115148
 24
-0.0021901747590855
 14
0.4627734781028381
 24
0.1893164228602528
 14
0.3550986861050299
 24
0.3520013112567634
 14
0.1933633381253361
 24
0.4610971909142662
  0
CIRCLE
  5
C2
100
AcDbEntity
  8
0
370
              15
  6
Continuous
 62
               7
100
AcDbCircle
 10
-62.200000000000003
 20
79.892522711888176
 30
0.0
 40
2.9999999999999916
  0
WIPEOUT
  5
C3
100
AcDbEntity
  8
0
370
              15
  6
Continuous
 62
               7
 92
        0
100
AcDbWipeout
 90
        0
 10
-63.099999999999994
 20
80.392522711888176
 30
0.0
 11
0.4000000000000057
 21
0.0
 31
0.0
 12
0.0
 22
0.4000000000000057
 32
0.0
 13
1.0
 23
1.0
340
0
 70
               7
280
               1
281
              50
282
              50
283
               0
360
0
 71
               2
 91
       19
 14
0.5
 24
-0.5
 14
0.4951847266721928
 24
-0.4019828596704343
 14
0.4807852804032218
 24
-0.304909677983889
 14
0.4569403357322102
 24
-0.2097153227455421
 14
0.4238795325112872
 24
-0.1173165676349069
 14
0.3819212643483584
 24
-0.0286032631739981
 14
0.3314696123025438
 24
0.0555702330196076
 14
0.2730104533627437
 24
0.1343932841636412
 14
0.2071067811865538
 24
0.2071067811865361
 14
0.1343932841636412
 24
0.2730104533627259
 14
0.0555702330196076
 24
0.3314696123025437
 14
-0.0286032631739981
 24
0.3819212643483584
 14
-0.1173165676349069
 24
0.4238795325112872
 14
-0.2097153227455421
 24
0.4569403357321923
 14
-0.3049096779838713
 24
0.4807852804032396
 14
-0.4019828596704343
 24
0.4951847266721928
 14
-0.5
 24
0.5
 14
-0.5
 24
-0.5
 14
0.5
 24
-0.5
  0
ARC
  5
C4
100
AcDbEntity
  8
0
370
              15
  6
Continuous
 62
               7
100
AcDbCircle
 10
-63.099999999999994
 20
80.792522711888182
 30
0.0
 40
0.4000000000000057
100
AcDbArc
 50
270.0
 51
0.0
  0
WIPEOUT
  5
C5
100
AcDbEntity
  8
0
370
              15
  6
Continuous
 62
               7
 92
        0
100
AcDbWipeout
 90
        0
 10
-63.099999999999994
 20
78.992522711888171
 30
0.0
 11
0.4000000000000057
 21
0.0
 31
0.0
 12
0.0
 22
0.4000000000000057
 32
0.0
 13
1.0
 23
1.0
340
0
 70
               7
280
               1
281
              50
282
              50
283
               0
360
0
 71
               2
 91
       19
 14
-0.5
 24
-0.4999999999999645
 14
-0.4019828596704343
 24
-0.4951847266721573
 14
-0.3049096779838713
 24
-0.480785280403204
 14
-0.2097153227455421
 24
-0.4569403357321924
 14
-0.1173165676349247
 24
-0.4238795325112517
 14
-0.0286032631740159
 24
-0.3819212643483229
 14
0.0555702330195899
 24
-0.3314696123025083
 14
0.1343932841636234
 24
-0.2730104533627259
 14
0.2071067811865183
 24
-0.207106781186536
 14
0.2730104533627081
 24
-0.1343932841636056
 14
0.3314696123025083
 24
-0.0555702330195721
 14
0.3819212643483229
 24
0.0286032631740337
 14
0.4238795325112517
 24
0.1173165676349069
 14
0.4569403357321746
 24
0.2097153227455421
 14
0.480785280403204
 24
0.304909677983889
 14
0.4951847266721573
 24
0.4019828596704343
 14
0.4999999999999645
 24
0.5
 14
-0.5
 24
0.5
 14
-0.5
 24
-0.4999999999999645
  0
ARC
  5
C6
100
AcDbEntity
  8
0
370
              15
  6
Continuous
 62
               7
100
AcDbCircle
 10
-63.099999999999994
 20
78.992522711888171
 30
0.0
 40
0.3999999999999915
100
AcDbArc
 50
0.0
 51
90.0
  0
WIPEOUT
  5
C7
100
AcDbEntity
  8
0
370
              15
  6
Continuous
 62
               7
 92
        0
100
AcDbWipeout
 90
        0
 10
-61.699999999999989
 20
80.392522711888176
 30
0.0
 11
0.4000000000000057
 21
0.0
 31
0.0
 12
0.0
 22
0.4000000000000057
 32
0.0
 13
1.0
 23
1.0
340
0
 70
               7
280
               1
281
              50
282
              50
283
               0
360
0
 71
               2
 91
       19
 14
0.4999999999999645
 24
0.4999999999999645
 14
0.4019828596703988
 24
0.4951847266721572
 14
0.3049096779838357
 24
0.4807852804032041
 14
0.2097153227455065
 24
0.4569403357321923
 14
0.1173165676348892
 24
0.4238795325112517
 14
0.0286032631739803
 24
0.3819212643483229
 14
-0.0555702330196254
 24
0.3314696123025082
 14
-0.1343932841636589
 24
0.2730104533627259
 14
-0.2071067811865539
 24
0.2071067811865361
 14
-0.2730104533627437
 24
0.1343932841636056
 14
-0.3314696123025437
 24
0.0555702330195721
 14
-0.3819212643483584
 24
-0.0286032631740336
 14
-0.4238795325112872
 24
-0.1173165676349069
 14
-0.4569403357322101
 24
-0.2097153227455421
 14
-0.4807852804032396
 24
-0.304909677983889
 14
-0.4951847266721928
 24
-0.4019828596704343
 14
-0.5
 24
-0.5
 14
0.4999999999999645
 24
-0.5
 14
0.4999999999999645
 24
0.4999999999999645
  0
ARC
  5
C8
100
AcDbEntity
  8
0
370
              15
  6
Continuous
 62
               7
100
AcDbCircle
 10
-61.299999999999997
 20
80.792522711888182
 30
0.0
 40
0.3999999999999915
100
AcDbArc
 50
180.0
 51
270.0
  0
WIPEOUT
  5
C9
100
AcDbEntity
  8
0
370
              15
  6
Continuous
 62
               7
 92
        0
100
AcDbWipeout
 90
        0
 10
-61.699999999999989
 20
78.992522711888199
 30
0.0
 11
0.3999999999999915
 21
0.0
 31
0.0
 12
0.0
 22
0.3999999999999915
 32
0.0
 13
1.0
 23
1.0
340
0
 70
               7
280
               1
281
              50
282
              50
283
               0
360
0
 71
               2
 91
       19
 14
-0.4999999999999645
 24
0.5
 14
-0.4951847266721571
 24
0.4019828596704308
 14
-0.4807852804032034
 24
0.3049096779838821
 14
-0.4569403357321731
 24
0.2097153227455318
 14
-0.4238795325112489
 24
0.1173165676349289
 14
-0.3819212643483187
 24
0.0286032631740169
 14
-0.33146961230252
 24
-0.0555702330195919
 14
-0.2730104533627178
 24
-0.1343932841636282
 14
-0.2071067811865257
 24
-0.2071067811865257
 14
-0.1343932841636282
 24
-0.2730104533627178
 14
-0.055570233019574
 24
-0.3314696123025023
 14
0.0286032631740168
 24
-0.3819212643483186
 14
0.1173165676349289
 24
-0.4238795325112489
 14
0.2097153227455495
 24
-0.4569403357321908
 14
0.3049096779838821
 24
-0.4807852804032033
 14
0.4019828596704486
 24
-0.4951847266721571
 14
0.5
 24
-0.4999999999999645
 14
0.5
 24
0.5
 14
-0.4999999999999645
 24
0.5
  0
ARC
  5
CA
100
AcDbEntity
  8
0
370
              15
  6
Continuous
 62
               7
100
AcDbCircle
 10
-61.299999999999997
 20
78.992522711888199
 30
0.0
 40
0.3999999999999773
100
AcDbArc
 50
90.0
 51
180.0
  0
LINE
  5
CB
100
AcDbEntity
  8
0
370
              15
  6
Continuous
 62
               7
100
AcDbLine
 10
-62.700000000000003
 20
80.792522711888182
 30
0.0
 11
-62.700000000000003
 21
81.742522711888199
 31
0.0
  0
LINE
  5
CC
100
AcDbEntity
  8
0
370
              15
  6
Continuous
 62
               7
100
AcDbLine
 10
-62.700000000000003
 20
81.742522711888199
 30
0.0
 11
-61.700000000000003
 21
81.742522711888199
 31
0.0
  0
LINE
  5
CD
100
AcDbEntity
  8
0
370
              15
  6
Continuous
 62
               7
100
AcDbLine
 10
-61.700000000000003
 20
81.742522711888199
 30
0.0
 11
-61.699999999999989
 21
80.792522711888182
 31
0.0
  0
LINE
  5
CE
100
AcDbEntity
  8
0
370
              15
  6
Continuous
 62
               7
100
AcDbLine
 10
-61.299999999999997
 20
80.392522711888176
 30
0.0
 11
-60.350000000000001
 21
80.392522711888176
 31
0.0
  0
LINE
  5
CF
100
AcDbEntity
  8
0
370
              15
  6
Continuous
 62
               7
100
AcDbLine
 10
-60.350000000000001
 20
80.392522711888176
 30
0.0
 11
-60.350000000000001
 21
79.392522711888176
 31
0.0
  0
LINE
  5
D0
100
AcDbEntity
  8
0
370
              15
  6
Continuous
 62
               7
100
AcDbLine
 10
-60.350000000000001
 20
79.392522711888176
 30
0.0
 11
-61.299999999999997
 21
79.392522711888176
 31
0.0
  0
LINE
  5
D1
100
AcDbEntity
  8
0
370
              15
  6
Continuous
 62
               7
100
AcDbLine
 10
-61.699999999999989
 20
78.992522711888199
 30
0.0
 11
-61.700000000000003
 21
78.042522711888182
 31
0.0
  0
LINE
  5
D2
100
AcDbEntity
  8
0
370
              15
  6
Continuous
 62
               7
100
AcDbLine
 10
-61.700000000000003
 20
78.042522711888182
 30
0.0
 11
-62.700000000000003
 21
78.042522711888182
 31
0.0
  0
LINE
  5
D3
100
AcDbEntity
  8
0
370
              15
  6
Continuous
 62
               7
100
AcDbLine
 10
-62.700000000000003
 20
78.042522711888182
 30
0.0
 11
-62.700000000000003
 21
78.992522711888171
 31
0.0
  0
LINE
  5
D4
100
AcDbEntity
  8
0
370
              15
  6
Continuous
 62
               7
100
AcDbLine
 10
-63.099999999999994
 20
79.392522711888176
 30
0.0
 11
-64.050000000000011
 21
79.392522711888176
 31
0.0
  0
LINE
  5
D5
100
AcDbEntity
  8
0
370
              15
  6
Continuous
 62
               7
100
AcDbLine
 10
-64.050000000000011
 20
79.392522711888176
 30
0.0
 11
-64.050000000000011
 21
80.392522711888176
 31
0.0
  0
LINE
  5
D6
100
AcDbEntity
  8
0
370
              15
  6
Continuous
 62
               7
100
AcDbLine
 10
-64.050000000000011
 20
80.392522711888176
 30
0.0
 11
-63.099999999999994
 21
80.392522711888176
 31
0.0
  0
ENDBLK
  5
D7
100
AcDbEntity
  8
0
100
AcDbBlockEnd
  0
BLOCK
  5
D8
100
AcDbEntity
  8
0
100
AcDbBlockBegin
  2
グループ-7
 70
               0
 10
0.0
 20
0.0
 30
0.0
  3
グループ-7
  1

  0
INSERT
  5
D9
100
AcDbEntity
  8
0
 62
               7
100
AcDbBlockReference
  2
グループ-5
 10
0.0
 20
0.0
 30
0.0
  0
WIPEOUT
  5
DA
100
AcDbEntity
  8
0
370
              15
  6
Continuous
 62
               7
 92
        0
100
AcDbWipeout
 90
        0
 10
-144.0
 20
-13.907477288111835
 30
0.0
 11
81.5
 21
0.0
 31
0.0
 12
0.0
 22
81.5
 32
0.0
 13
1.0
 23
1.0
340
0
 70
               7
280
               1
281
              50
282
              50
283
               0
360
0
 71
               2
 91
        5
 14
-0.5
 24
-0.5
 14
0.5
 24
-0.5
 14
0.5
 24
0.5
 14
-0.5
 24
0.5
 14
-0.5
 24
-0.5
  0
POLYLINE
  5
DB
100
AcDbEntity
  8
0
370
              15
  6
Continuous
 62
               7
100
AcDb2dPolyline
 66
               1
 10
0.0
 20
0.0
 30
0.0
 70
               1
 75
               5
  0
VERTEX
  5
DC
100
AcDbEntity
  8
0
370
              15
  6
Continuous
 62
               7
100
AcDbVertex
100
AcDb2dVertex
 10
-144.0
 20
67.592522711888165
 30
0.0
  0
VERTEX
  5
DD
100
AcDbEntity
  8
0
370
              15
  6
Continuous
 62
               7
100
AcDbVertex
100
AcDb2dVertex
 10
-62.5
 20
67.592522711888165
 30
0.0
  0
VERTEX
  5
DE
100
AcDbEntity
  8
0
370
              15
  6
Continuous
 62
               7
100
AcDbVertex
100
AcDb2dVertex
 10
-62.5
 20
-13.907477288111835
 30
0.0
  0
VERTEX
  5
DF
100
AcDbEntity
  8
0
370
              15
  6
Continuous
 62
               7
100
AcDbVertex
100
AcDb2dVertex
 10
-144.0
 20
-13.907477288111835
 30
0.0
  0
SEQEND
  5
E0
100
AcDbEntity
  8
0
370
              15
  6
Continuous
 62
               7
  0
WIPEOUT
  5
E1
100
AcDbEntity
  8
0
370
              15
  6
Continuous
 62
               7
 92
        0
100
AcDbWipeout
 90
        0
 10
-131.0
 20
67.592522711888165
 30
0.0
 11
41.5
 21
0.0
 31
0.0
 12
0.0
 22
41.5
 32
0.0
 13
1.0
 23
1.0
340
0
 70
               7
280
               1
281
              50
282
              50
283
               0
360
0
 71
               2
 91
        5
 14
-0.5
 24
0.0180722891566265
 14
0.5
 24
0.0180722891566265
 14
0.5
 24
0.5
 14
-0.5
 24
0.5
 14
-0.5
 24
0.0180722891566265
  0
POLYLINE
  5
E2
100
AcDbEntity
  8
0
370
              15
  6
Continuous
 62
               7
100
AcDb2dPolyline
 66
               1
 10
0.0
 20
0.0
 30
0.0
 70
               1
 75
               5
  0
VERTEX
  5
E3
100
AcDbEntity
  8
0
370
              15
  6
Continuous
 62
               7
100
AcDbVertex
100
AcDb2dVertex
 10
-131.0
 20
87.592522711888165
 30
0.0
  0
VERTEX
  5
E4
100
AcDbEntity
  8
0
370
              15
  6
Continuous
 62
               7
100
AcDbVertex
100
AcDb2dVertex
 10
-89.5
 20
87.592522711888165
 30
0.0
  0
VERTEX
  5
E5
100
AcDbEntity
  8
0
370
              15
  6
Continuous
 62
               7
100
AcDbVertex
100
AcDb2dVertex
 10
-89.5
 20
67.592522711888165
 30
0.0
  0
VERTEX
  5
E6
100
AcDbEntity
  8
0
370
              15
  6
Continuous
 62
               7
100
AcDbVertex
100
AcDb2dVertex
 10
-131.0
 20
67.592522711888165
 30
0.0
  0
SEQEND
  5
E7
100
AcDbEntity
  8
0
370
              15
  6
Continuous
 62
               7
  0
WIPEOUT
  5
E8
100
AcDbEntity
  8
0
370
              15
  6
Continuous
 62
               7
 92
        0
100
AcDbWipeout
 90
        0
 10
-61.199999999999996
 20
43.992522711888171
 30
0.0
 11
18.0
 21
0.0
 31
0.0
 12
0.0
 22
18.0
 32
0.0
 13
1.0
 23
1.0
340
0
 70
               7
280
               1
281
              50
282
              50
283
               0
360
0
 71
               2
 91
        5
 14
-0.5
 24
-0.1666666666666666
 14
0.5
 24
-0.1666666666666666
 14
0.5
 24
0.5
 14
-0.5
 24
0.5
 14
-0.5
 24
-0.1666666666666666
  0
POLYLINE
  5
E9
100
AcDbEntity
  8
0
370
              15
  6
Continuous
 62
               7
100
AcDb2dPolyline
 66
               1
 10
0.0
 20
0.0
 30
0.0
 70
               1
 75
               5
  0
VERTEX
  5
EA
100
AcDbEntity
  8
0
370
              15
  6
Continuous
 62
               7
100
AcDbVertex
100
AcDb2dVertex
 10
-61.199999999999996
 20
55.992522711888171
 30
0.0
  0
VERTEX
  5
EB
100
AcDbEntity
  8
0
370
              15
  6
Continuous
 62
               7
100
AcDbVertex
100
AcDb2dVertex
 10
-43.199999999999996
 20
55.992522711888171
 30
0.0
  0
VERTEX
  5
EC
100
AcDbEntity
  8
0
370
              15
  6
Continuous
 62
               7
100
AcDbVertex
100
AcDb2dVertex
 10
-43.199999999999996
 20
43.992522711888171
 30
0.0
  0
VERTEX
  5
ED
100
AcDbEntity
  8
0
370
              15
  6
Continuous
 62
               7
100
AcDbVertex
100
AcDb2dVertex
 10
-61.199999999999996
 20
43.992522711888171
 30
0.0
  0
SEQEND
  5
EE
100
AcDbEntity
  8
0
370
              15
  6
Continuous
 62
               7
  0
WIPEOUT
  5
EF
100
AcDbEntity
  8
0
370
              15
  6
Continuous
 62
               7
 92
        0
100
AcDbWipeout
 90
        0
 10
-61.199999999999996
 20
-8.5074772881118292
 30
0.0
 11
50.5
 21
0.0
 31
0.0
 12
0.0
 22
50.5
 32
0.0
 13
1.0
 23
1.0
340
0
 70
               7
280
               1
281
              50
282
              50
283
               0
360
0
 71
               2
 91
        5
 14
-0.5
 24
-0.5
 14
-0.1039603960396039
 24
-0.5
 14
-0.1039603960396039
 24
0.5
 14
-0.5
 24
0.5
 14
-0.5
 24
-0.5
  0
POLYLINE
  5
F0
100
AcDbEntity
  8
0
370
              15
  6
Continuous
 62
               7
100
AcDb2dPolyline
 66
               1
 10
0.0
 20
0.0
 30
0.0
 70
               1
 75
               5
  0
VERTEX
  5
F1
100
AcDbEntity
  8
0
370
              15
  6
Continuous
 62
               7
100
AcDbVertex
100
AcDb2dVertex
 10
-61.199999999999996
 20
41.992522711888171
 30
0.0
  0
VERTEX
  5
F2
100
AcDbEntity
  8
0
370
              15
  6
Continuous
 62
               7
100
AcDbVertex
100
AcDb2dVertex
 10
-41.199999999999996
 20
41.992522711888171
 30
0.0
  0
VERTEX
  5
F3
100
AcDbEntity
  8
0
370
              15
  6
Continuous
 62
               7
100
AcDbVertex
100
AcDb2dVertex
 10
-41.199999999999996
 20
-8.5074772881118292
 30
0.0
  0
VERTEX
  5
F4
100
AcDbEntity
  8
0
370
              15
  6
Continuous
 62
               7
100
AcDbVertex
100
AcDb2dVertex
 10
-61.199999999999996
 20
-8.5074772881118292
 30
0.0
  0
SEQEND
  5
F5
100
AcDbEntity
  8
0
370
              15
  6
Continuous
 62
               7
  0
WIPEOUT
  5
F6
100
AcDbEntity
  8
0
370
              15
  6
Continuous
 62
               7
 92
        0
100
AcDbWipeout
 90
        0
 10
-61.199999999999996
 20
41.992522711888171
 30
0.0
 11
18.0
 21
0.0
 31
0.0
 12
0.0
 22
18.0
 32
0.0
 13
1.0
 23
1.0
340
0
 70
               7
280
               1
281
              50
282
              50
283
               0
360
0
 71
               2
 91
        5
 14
-0.5
 24
0.3888888888888889
 14
0.5
 24
0.3888888888888889
 14
0.5
 24
0.5
 14
-0.5
 24
0.5
 14
-0.5
 24
0.3888888888888889
  0
POLYLINE
  5
F7
100
AcDbEntity
  8
0
370
              15
  6
Continuous
 62
               7
100
AcDb2dPolyline
 66
               1
 10
0.0
 20
0.0
 30
0.0
 70
               1
 75
               5
  0
VERTEX
  5
F8
100
AcDbEntity
  8
0
370
              15
  6
Continuous
 62
               7
100
AcDbVertex
100
AcDb2dVertex
 10
-61.199999999999996
 20
43.992522711888171
 30
0.0
  0
VERTEX
  5
F9
100
AcDbEntity
  8
0
370
              15
  6
Continuous
 62
               7
100
AcDbVertex
100
AcDb2dVertex
 10
-43.199999999999996
 20
43.992522711888171
 30
0.0
  0
VERTEX
  5
FA
100
AcDbEntity
  8
0
370
              15
  6
Continuous
 62
               7
100
AcDbVertex
100
AcDb2dVertex
 10
-43.199999999999996
 20
41.992522711888171
 30
0.0
  0
VERTEX
  5
FB
100
AcDbEntity
  8
0
370
              15
  6
Continuous
 62
               7
100
AcDbVertex
100
AcDb2dVertex
 10
-61.199999999999996
 20
41.992522711888171
 30
0.0
  0
SEQEND
  5
FC
100
AcDbEntity
  8
0
370
              15
  6
Continuous
 62
               7
  0
WIPEOUT
  5
FD
100
AcDbEntity
  8
0
370
              15
  6
Continuous
 62
               7
 92
        0
100
AcDbWipeout
 90
        0
 10
-61.199999999999996
 20
-10.507477288111829
 30
0.0
 11
17.999999999999993
 21
0.0
 31
0.0
 12
0.0
 22
17.999999999999993
 32
0.0
 13
1.0
 23
1.0
340
0
 70
               7
280
               1
281
              50
282
              50
283
               0
360
0
 71
               2
 91
        5
 14
-0.5
 24
0.3888888888888888
 14
0.5
 24
0.3888888888888888
 14
0.5
 24
0.5
 14
-0.5
 24
0.5
 14
-0.5
 24
0.3888888888888888
  0
POLYLINE
  5
FE
100
AcDbEntity
  8
0
370
              15
  6
Continuous
 62
               7
100
AcDb2dPolyline
 66
               1
 10
0.0
 20
0.0
 30
0.0
 70
               1
 75
               5
  0
VERTEX
  5
FF
100
AcDbEntity
  8
0
370
              15
  6
Continuous
 62
               7
100
AcDbVertex
100
AcDb2dVertex
 10
-61.199999999999996
 20
-8.5074772881118292
 30
0.0
  0
VERTEX
  5
100
100
AcDbEntity
  8
0
370
              15
  6
Continuous
 62
               7
100
AcDbVertex
100
AcDb2dVertex
 10
-43.200000000000003
 20
-8.5074772881118292
 30
0.0
  0
VERTEX
  5
101
100
AcDbEntity
  8
0
370
              15
  6
Continuous
 62
               7
100
AcDbVertex
100
AcDb2dVertex
 10
-43.200000000000003
 20
-10.507477288111829
 30
0.0
  0
VERTEX
  5
102
100
AcDbEntity
  8
0
370
              15
  6
Continuous
 62
               7
100
AcDbVertex
100
AcDb2dVertex
 10
-61.199999999999996
 20
-10.507477288111829
 30
0.0
  0
SEQEND
  5
103
100
AcDbEntity
  8
0
370
              15
  6
Continuous
 62
               7
  0
WIPEOUT
  5
104
100
AcDbEntity
  8
0
370
              15
  6
Continuous
 62
               7
 92
        0
100
AcDbWipeout
 90
        0
 10
-61.199999999999996
 20
-22.507477288111836
 30
0.0
 11
17.999999999999993
 21
0.0
 31
0.0
 12
0.0
 22
17.999999999999993
 32
0.0
 13
1.0
 23
1.0
340
0
 70
               7
280
               1
281
              50
282
              50
283
               0
360
0
 71
               2
 91
        5
 14
-0.5
 24
-0.1666666666666673
 14
0.5
 24
-0.1666666666666673
 14
0.5
 24
0.5
 14
-0.5
 24
0.5
 14
-0.5
 24
-0.1666666666666673
  0
POLYLINE
  5
105
100
AcDbEntity
  8
0
370
              15
  6
Continuous
 62
               7
100
AcDb2dPolyline
 66
               1
 10
0.0
 20
0.0
 30
0.0
 70
               1
 75
               5
  0
VERTEX
  5
106
100
AcDbEntity
  8
0
370
              15
  6
Continuous
 62
               7
100
AcDbVertex
100
AcDb2dVertex
 10
-61.199999999999996
 20
-10.507477288111829
 30
0.0
  0
VERTEX
  5
107
100
AcDbEntity
  8
0
370
              15
  6
Continuous
 62
               7
100
AcDbVertex
100
AcDb2dVertex
 10
-43.200000000000003
 20
-10.507477288111829
 30
0.0
  0
VERTEX
  5
108
100
AcDbEntity
  8
0
370
              15
  6
Continuous
 62
               7
100
AcDbVertex
100
AcDb2dVertex
 10
-43.200000000000003
 20
-22.507477288111836
 30
0.0
  0
VERTEX
  5
109
100
AcDbEntity
  8
0
370
              15
  6
Continuous
 62
               7
100
AcDbVertex
100
AcDb2dVertex
 10
-61.199999999999996
 20
-22.507477288111836
 30
0.0
  0
SEQEND
  5
10A
100
AcDbEntity
  8
0
370
              15
  6
Continuous
 62
               7
  0
WIPEOUT
  5
10B
100
AcDbEntity
  8
0
370
              15
  6
Continuous
 62
               7
 92
        0
100
AcDbWipeout
 90
        0
 10
-56.200000000000003
 20
-24.107477288111834
 30
0.0
 11
8.0
 21
0.0
 31
0.0
 12
0.0
 22
8.0
 32
0.0
 13
1.0
 23
1.0
340
0
 70
               7
280
               1
281
              50
282
              50
283
               0
360
0
 71
               2
 91
        5
 14
-0.5
 24
-0.2875000000000001
 14
0.5
 24
-0.2875000000000001
 14
0.5
 24
0.5
 14
-0.5
 24
0.5
 14
-0.5
 24
-0.2875000000000001
  0
POLYLINE
  5
10C
100
AcDbEntity
  8
0
370
              15
  6
Continuous
 62
               7
100
AcDb2dPolyline
 66
               1
 10
0.0
 20
0.0
 30
0.0
 70
               1
 75
               5
  0
VERTEX
  5
10D
100
AcDbEntity
  8
0
370
              15
  6
Continuous
 62
               7
100
AcDbVertex
100
AcDb2dVertex
 10
-56.200000000000003
 20
-17.807477288111834
 30
0.0
  0
VERTEX
  5
10E
100
AcDbEntity
  8
0
370
              15
  6
Continuous
 62
               7
100
AcDbVertex
100
AcDb2dVertex
 10
-48.200000000000003
 20
-17.807477288111834
 30
0.0
  0
VERTEX
  5
10F
100
AcDbEntity
  8
0
370
              15
  6
Continuous
 62
               7
100
AcDbVertex
100
AcDb2dVertex
 10
-48.200000000000003
 20
-24.107477288111834
 30
0.0
  0
VERTEX
  5
110
100
AcDbEntity
  8
0
370
              15
  6
Continuous
 62
               7
100
AcDbVertex
100
AcDb2dVertex
 10
-56.200000000000003
 20
-24.107477288111834
 30
0.0
  0
SEQEND
  5
111
100
AcDbEntity
  8
0
370
              15
  6
Continuous
 62
               7
  0
WIPEOUT
  5
112
100
AcDbEntity
  8
0
370
              15
  6
Continuous
 62
               7
 92
        0
100
AcDbWipeout
 90
        0
 10
-53.600000000000001
 20
-17.807477288111834
 30
0.0
 11
2.7999999999999972
 21
0.0
 31
0.0
 12
0.0
 22
2.7999999999999972
 32
0.0
 13
1.0
 23
1.0
340
0
 70
               7
280
               1
281
              50
282
              50
283
               0
360
0
 71
               2
 91
        5
 14
-0.5
 24
-0.3214285714285713
 14
0.5
 24
-0.3214285714285713
 14
0.5
 24
0.5
 14
-0.5
 24
0.5
 14
-0.5
 24
-0.3214285714285713
  0
POLYLINE
  5
113
100
AcDbEntity
  8
0
370
              15
  6
Continuous
 62
               7
100
AcDb2dPolyline
 66
               1
 10
0.0
 20
0.0
 30
0.0
 70
               1
 75
               5
  0
VERTEX
  5
114
100
AcDbEntity
  8
0
370
              15
  6
Continuous
 62
               7
100
AcDbVertex
100
AcDb2dVertex
 10
-53.600000000000001
 20
-15.507477288111836
 30
0.0
  0
VERTEX
  5
115
100
AcDbEntity
  8
0
370
              15
  6
Continuous
 62
               7
100
AcDbVertex
100
AcDb2dVertex
 10
-50.800000000000004
 20
-15.507477288111836
 30
0.0
  0
VERTEX
  5
116
100
AcDbEntity
  8
0
370
              15
  6
Continuous
 62
               7
100
AcDbVertex
100
AcDb2dVertex
 10
-50.800000000000004
 20
-17.807477288111834
 30
0.0
  0
VERTEX
  5
117
100
AcDbEntity
  8
0
370
              15
  6
Continuous
 62
               7
100
AcDbVertex
100
AcDb2dVertex
 10
-53.600000000000001
 20
-17.807477288111834
 30
0.0
  0
SEQEND
  5
118
100
AcDbEntity
  8
0
370
              15
  6
Continuous
 62
               7
  0
WIPEOUT
  5
119
100
AcDbEntity
  8
0
370
              15
  6
Continuous
 62
               7
 92
        0
100
AcDbWipeout
 90
        0
 10
-55.350000000000001
 20
-15.507477288111836
 30
0.0
 11
6.2999999999999972
 21
0.0
 31
0.0
 12
0.0
 22
6.2999999999999972
 32
0.0
 13
1.0
 23
1.0
340
0
 70
               7
280
               1
281
              50
282
              50
283
               0
360
0
 71
               2
 91
        5
 14
-0.5
 24
0.0238095238095233
 14
0.5
 24
0.0238095238095233
 14
0.5
 24
0.5
 14
-0.5
 24
0.5
 14
-0.5
 24
0.0238095238095233
  0
POLYLINE
  5
11A
100
AcDbEntity
  8
0
370
              15
  6
Continuous
 62
               7
100
AcDb2dPolyline
 66
               1
 10
0.0
 20
0.0
 30
0.0
 70
               1
 75
               5
  0
VERTEX
  5
11B
100
AcDbEntity
  8
0
370
              15
  6
Continuous
 62
               7
100
AcDbVertex
100
AcDb2dVertex
 10
-55.350000000000001
 20
-12.507477288111835
 30
0.0
  0
VERTEX
  5
11C
100
AcDbEntity
  8
0
370
              15
  6
Continuous
 62
               7
100
AcDbVertex
100
AcDb2dVertex
 10
-49.050000000000004
 20
-12.507477288111835
 30
0.0
  0
VERTEX
  5
11D
100
AcDbEntity
  8
0
370
              15
  6
Continuous
 62
               7
100
AcDbVertex
100
AcDb2dVertex
 10
-49.050000000000004
 20
-15.507477288111836
 30
0.0
  0
VERTEX
  5
11E
100
AcDbEntity
  8
0
370
              15
  6
Continuous
 62
               7
100
AcDbVertex
100
AcDb2dVertex
 10
-55.350000000000001
 20
-15.507477288111836
 30
0.0
  0
SEQEND
  5
11F
100
AcDbEntity
  8
0
370
              15
  6
Continuous
 62
               7
  0
WIPEOUT
  5
120
100
AcDbEntity
  8
0
370
              15
  6
Continuous
 62
               7
 92
        0
100
AcDbWipeout
 90
        0
 10
-57.075000000000003
 20
-12.507477288111835
 30
0.0
 11
9.740000000000002
 21
0.0
 31
0.0
 12
0.0
 22
9.740000000000002
 32
0.0
 13
1.0
 23
1.0
340
0
 70
               7
280
               1
281
              50
282
              50
283
               0
360
0
 71
               2
 91
        5
 14
-0.5
 24
0.2946611909650919
 14
0.5
 24
0.2946611909650919
 14
0.5
 24
0.5
 14
-0.5
 24
0.5
 14
-0.5
 24
0.2946611909650919
  0
POLYLINE
  5
121
100
AcDbEntity
  8
0
370
              15
  6
Continuous
 62
               7
100
AcDb2dPolyline
 66
               1
 10
0.0
 20
0.0
 30
0.0
 70
               1
 75
               5
  0
VERTEX
  5
122
100
AcDbEntity
  8
0
370
              15
  6
Continuous
 62
               7
100
AcDbVertex
100
AcDb2dVertex
 10
-57.075000000000003
 20
-10.507477288111829
 30
0.0
  0
VERTEX
  5
123
100
AcDbEntity
  8
0
370
              15
  6
Continuous
 62
               7
100
AcDbVertex
100
AcDb2dVertex
 10
-47.335000000000001
 20
-10.507477288111829
 30
0.0
  0
VERTEX
  5
124
100
AcDbEntity
  8
0
370
              15
  6
Continuous
 62
               7
100
AcDbVertex
100
AcDb2dVertex
 10
-47.335000000000001
 20
-12.507477288111835
 30
0.0
  0
VERTEX
  5
125
100
AcDbEntity
  8
0
370
              15
  6
Continuous
 62
               7
100
AcDbVertex
100
AcDb2dVertex
 10
-57.075000000000003
 20
-12.507477288111835
 30
0.0
  0
SEQEND
  5
126
100
AcDbEntity
  8
0
370
              15
  6
Continuous
 62
               7
  0
WIPEOUT
  5
127
100
AcDbEntity
  8
0
370
              15
  6
Continuous
 62
               7
 92
        0
100
AcDbWipeout
 90
        0
 10
-54.700000000000003
 20
-12.507477288111835
 30
0.0
 11
4.8699999999999974
 21
0.0
 31
0.0
 12
0.0
 22
4.8699999999999974
 32
0.0
 13
1.0
 23
1.0
340
0
 70
               7
280
               1
281
              50
282
              50
283
               0
360
0
 71
               2
 91
        5
 14
-0.5
 24
0.0893223819301835
 14
0.5
 24
0.0893223819301835
 14
0.5
 24
0.5
 14
-0.5
 24
0.5
 14
-0.5
 24
0.0893223819301835
  0
POLYLINE
  5
128
100
AcDbEntity
  8
0
370
              15
  6
Continuous
 62
               7
100
AcDb2dPolyline
 66
               1
 10
0.0
 20
0.0
 30
0.0
 70
               1
 75
               5
  0
VERTEX
  5
129
100
AcDbEntity
  8
0
370
              15
  6
Continuous
 62
               7
100
AcDbVertex
100
AcDb2dVertex
 10
-54.700000000000003
 20
-10.507477288111829
 30
0.0
  0
VERTEX
  5
12A
100
AcDbEntity
  8
0
370
              15
  6
Continuous
 62
               7
100
AcDbVertex
100
AcDb2dVertex
 10
-49.830000000000005
 20
-10.507477288111829
 30
0.0
  0
VERTEX
  5
12B
100
AcDbEntity
  8
0
370
              15
  6
Continuous
 62
               7
100
AcDbVertex
100
AcDb2dVertex
 10
-49.830000000000005
 20
-12.507477288111835
 30
0.0
  0
VERTEX
  5
12C
100
AcDbEntity
  8
0
370
              15
  6
Continuous
 62
               7
100
AcDbVertex
100
AcDb2dVertex
 10
-54.700000000000003
 20
-12.507477288111835
 30
0.0
  0
SEQEND
  5
12D
100
AcDbEntity
  8
0
370
              15
  6
Continuous
 62
               7
  0
WIPEOUT
  5
12E
100
AcDbEntity
  8
0
370
              15
  6
Continuous
 62
               7
 92
        0
100
AcDbWipeout
 90
        0
 10
-55.001110699893026
 20
65.091412011995118
 30
0.0
 11
3.0022213997860518
 21
0.0
 31
0.0
 12
0.0
 22
3.0022213997860518
 32
0.0
 13
1.0
 23
1.0
340
0
 70
               7
280
               1
281
              50
282
              50
283
               0
360
0
 71
               2
 91
       17
 14
0.2500000000000012
 24
0.4330127018922211
 14
0.0652630961100281
 24
0.4957224306869051
 14
-0.1294095225512578
 24
0.4829629131445359
 14
-0.3043807145043585
 24
0.3966766701456206
 14
-0.4330127018922187
 24
0.2500000000000059
 14
-0.4957224306869051
 24
0.0652630961100305
 14
-0.4829629131445336
 24
-0.1294095225512555
 14
-0.3966766701456183
 24
-0.3043807145043561
 14
-0.2500000000000012
 24
-0.4330127018922163
 14
-0.0652630961100281
 24
-0.4957224306869004
 14
0.1294095225512578
 24
-0.4829629131445312
 14
0.3043807145043586
 24
-0.3966766701456159
 14
0.4330127018922186
 24
-0.2500000000000012
 14
0.4957224306869051
 24
-0.0652630961100258
 14
0.4829629131445336
 24
0.1294095225512602
 14
0.3966766701456183
 24
0.3043807145043609
 14
0.2500000000000012
 24
0.4330127018922211
  0
CIRCLE
  5
12F
100
AcDbEntity
  8
0
370
              15
  6
Continuous
 62
               7
100
AcDbCircle
 10
-53.5
 20
66.592522711888137
 30
0.0
 40
1.5011106998930259
  0
WIPEOUT
  5
130
100
AcDbEntity
  8
0
370
              15
  6
Continuous
 62
               7
 92
        0
100
AcDbWipeout
 90
        0
 10
-130.09252271188819
 20
-21.500000000000011
 30
0.0
 11
3.0000000000000213
 21
0.0
 31
0.0
 12
0.0
 22
3.0000000000000213
 32
0.0
 13
1.0
 23
1.0
340
0
 70
               7
280
               1
281
              50
282
              50
283
               0
360
0
 71
               2
 91
       17
 14
0.3535533905932705
 24
0.3535533905932741
 14
0.1913417161825396
 24
0.4619397662556433
 14
-0.0000000000000036
 24
0.5
 14
-0.1913417161825467
 24
0.4619397662556433
 14
-0.3535533905932776
 24
0.3535533905932741
 14
-0.4619397662556445
 24
0.1913417161825455
 14
-0.5
 24
0.0
 14
-0.4619397662556445
 24
-0.1913417161825455
 14
-0.3535533905932776
 24
-0.3535533905932741
 14
-0.1913417161825467
 24
-0.4619397662556433
 14
-0.0000000000000036
 24
-0.5
 14
0.1913417161825396
 24
-0.4619397662556433
 14
0.3535533905932705
 24
-0.3535533905932741
 14
0.4619397662556422
 24
-0.1913417161825455
 14
0.4999999999999977
 24
0.0
 14
0.4619397662556422
 24
0.1913417161825455
 14
0.3535533905932705
 24
0.3535533905932741
  0
CIRCLE
  5
131
100
AcDbEntity
  8
0
370
              15
  6
Continuous
 62
               7
100
AcDbCircle
 10
-128.59252271188819
 20
-20.0
 30
0.0
 40
1.5000000000000122
  0
WIPEOUT
  5
132
100
AcDbEntity
  8
0
370
              15
  6
Continuous
 62
               7
 92
        0
100
AcDbWipeout
 90
        0
 10
-50.600000000000001
 20
74.892522711888176
 30
0.0
 11
10.000000000000028
 21
0.0
 31
0.0
 12
0.0
 22
10.000000000000028
 32
0.0
 13
1.0
 23
1.0
340
0
 70
               7
280
               1
281
              50
282
              50
283
               0
360
0
 71
               2
 91
        5
 14
-0.5
 24
-0.5
 14
0.0099999999999987
 24
-0.5
 14
0.0099999999999987
 24
0.5
 14
-0.5
 24
0.5
 14
-0.5
 24
-0.5
  0
POLYLINE
  5
133
100
AcDbEntity
  8
0
370
              15
  6
Continuous
 62
               7
100
AcDb2dPolyline
 66
               1
 10
0.0
 20
0.0
 30
0.0
 70
               1
 75
               5
  0
VERTEX
  5
134
100
AcDbEntity
  8
0
370
              15
  6
Continuous
 62
               7
100
AcDbVertex
100
AcDb2dVertex
 10
-50.600000000000001
 20
84.892522711888205
 30
0.0
  0
VERTEX
  5
135
100
AcDbEntity
  8
0
370
              15
  6
Continuous
 62
               7
100
AcDbVertex
100
AcDb2dVertex
 10
-45.5
 20
84.892522711888205
 30
0.0
  0
VERTEX
  5
136
100
AcDbEntity
  8
0
370
              15
  6
Continuous
 62
               7
100
AcDbVertex
100
AcDb2dVertex
 10
-45.5
 20
74.892522711888176
 30
0.0
  0
VERTEX
  5
137
100
AcDbEntity
  8
0
370
              15
  6
Continuous
 62
               7
100
AcDbVertex
100
AcDb2dVertex
 10
-50.600000000000001
 20
74.892522711888176
 30
0.0
  0
SEQEND
  5
138
100
AcDbEntity
  8
0
370
              15
  6
Continuous
 62
               7
  0
ARC
  5
139
100
AcDbEntity
  8
0
370
              15
  6
Continuous
 62
               7
100
AcDbCircle
 10
-62.200000000000003
 20
79.892522711888176
 30
0.0
 40
5.0000000000000284
100
AcDbArc
 50
90.0
 51
270.0
  0
LINE
  5
13A
100
AcDbEntity
  8
0
370
              15
  6
Continuous
 62
               7
100
AcDbLine
 10
-62.200000000000003
 20
84.892522711888205
 30
0.0
 11
-50.600000000000001
 21
84.892522711888205
 31
0.0
  0
LINE
  5
13B
100
AcDbEntity
  8
0
370
              15
  6
Continuous
 62
               7
100
AcDbLine
 10
-62.200000000000003
 20
74.892522711888176
 30
0.0
 11
-50.600000000000001
 21
74.892522711888176
 31
0.0
  0
INSERT
  5
13C
100
AcDbEntity
  8
0
 62
               7
100
AcDbBlockReference
  2
グループ-6
 10
0.0
 20
0.0
 30
0.0
  0
WIPEOUT
  5
13D
100
AcDbEntity
  8
0
370
              15
  6
Continuous
 62
               7
 92
        0
100
AcDbWipeout
 90
        0
 10
-53.700000000000003
 20
48.492522711888164
 30
0.0
 11
3.0000000000000142
 21
0.0
 31
0.0
 12
0.0
 22
3.0000000000000142
 32
0.0
 13
1.0
 23
1.0
340
0
 70
               7
280
               1
281
              50
282
              50
283
               0
360
0
 71
               2
 91
       17
 14
0.3535533905932726
 24
0.353553390593275
 14
0.191341716182546
 24
0.4619397662556444
 14
0.0
 24
0.5
 14
-0.191341716182546
 24
0.4619397662556444
 14
-0.3535533905932726
 24
0.353553390593275
 14
-0.4619397662556444
 24
0.191341716182546
 14
-0.5
 24
0.0
 14
-0.4619397662556444
 24
-0.191341716182546
 14
-0.3535533905932726
 24
-0.353553390593275
 14
-0.191341716182546
 24
-0.4619397662556444
 14
0.0
 24
-0.5
 14
0.191341716182546
 24
-0.4619397662556444
 14
0.3535533905932726
 24
-0.353553390593275
 14
0.4619397662556444
 24
-0.191341716182546
 14
0.5
 24
0.0
 14
0.4619397662556444
 24
0.191341716182546
 14
0.3535533905932726
 24
0.353553390593275
  0
CIRCLE
  5
13E
100
AcDbEntity
  8
0
370
              15
  6
Continuous
 62
               7
100
AcDbCircle
 10
-52.199999999999996
 20
49.992522711888171
 30
0.0
 40
1.5000000000000071
  0
ENDBLK
  5
13F
100
AcDbEntity
  8
0
100
AcDbBlockEnd
  0
BLOCK
  5
140
100
AcDbEntity
  8
0
100
AcDbBlockBegin
  2
グループ-8
 70
               0
 10
0.0
 20
0.0
 30
0.0
  3
グループ-8
  1

  0
WIPEOUT
  5
141
100
AcDbEntity
  8
0
370
              15
  6
Continuous
 62
               7
 92
        0
100
AcDbWipeout
 90
        0
 10
2.492522711888185
 20
-86.607477288111824
 30
0.0
 11
50.5
 21
0.0
 31
0.0
 12
0.0
 22
50.5
 32
0.0
 13
1.0
 23
1.0
340
0
 70
               7
280
               1
281
              50
282
              50
283
               0
360
0
 71
               2
 91
        5
 14
-0.5
 24
0.020792079207921
 14
0.5
 24
0.020792079207921
 14
0.5
 24
0.5
 14
-0.5
 24
0.5
 14
-0.5
 24
0.020792079207921
  0
POLYLINE
  5
142
100
AcDbEntity
  8
0
370
              15
  6
Continuous
 62
               7
100
AcDb2dPolyline
 66
               1
 10
0.0
 20
0.0
 30
0.0
 70
               1
 75
               5
  0
VERTEX
  5
143
100
AcDbEntity
  8
0
370
              15
  6
Continuous
 62
               7
100
AcDbVertex
100
AcDb2dVertex
 10
2.492522711888185
 20
-62.407477288111835
 30
0.0
  0
VERTEX
  5
144
100
AcDbEntity
  8
0
370
              15
  6
Continuous
 62
               7
100
AcDbVertex
100
AcDb2dVertex
 10
52.992522711888185
 20
-62.407477288111835
 30
0.0
  0
VERTEX
  5
145
100
AcDbEntity
  8
0
370
              15
  6
Continuous
 62
               7
100
AcDbVertex
100
AcDb2dVertex
 10
52.992522711888185
 20
-86.607477288111824
 30
0.0
  0
VERTEX
  5
146
100
AcDbEntity
  8
0
370
              15
  6
Continuous
 62
               7
100
AcDbVertex
100
AcDb2dVertex
 10
2.492522711888185
 20
-86.607477288111824
 30
0.0
  0
SEQEND
  5
147
100
AcDbEntity
  8
0
370
              15
  6
Continuous
 62
               7
  0
WIPEOUT
  5
148
100
AcDbEntity
  8
0
370
              15
  6
Continuous
 62
               7
 92
        0
100
AcDbWipeout
 90
        0
 10
52.992522711888185
 20
-86.607477288111824
 30
0.0
 11
24.199999999999989
 21
0.0
 31
0.0
 12
0.0
 22
24.199999999999989
 32
0.0
 13
1.0
 23
1.0
340
0
 70
               7
280
               1
281
              50
282
              50
283
               0
360
0
 71
               2
 91
        5
 14
-0.5
 24
-0.5
 14
-0.4173553719008264
 24
-0.5
 14
-0.4173553719008264
 24
0.5
 14
-0.5
 24
0.5
 14
-0.5
 24
-0.5
  0
POLYLINE
  5
149
100
AcDbEntity
  8
0
370
              15
  6
Continuous
 62
               7
100
AcDb2dPolyline
 66
               1
 10
0.0
 20
0.0
 30
0.0
 70
               1
 75
               5
  0
VERTEX
  5
14A
100
AcDbEntity
  8
0
370
              15
  6
Continuous
 62
               7
100
AcDbVertex
100
AcDb2dVertex
 10
52.992522711888185
 20
-62.407477288111835
 30
0.0
  0
VERTEX
  5
14B
100
AcDbEntity
  8
0
370
              15
  6
Continuous
 62
               7
100
AcDbVertex
100
AcDb2dVertex
 10
54.992522711888185
 20
-62.407477288111835
 30
0.0
  0
VERTEX
  5
14C
100
AcDbEntity
  8
0
370
              15
  6
Continuous
 62
               7
100
AcDbVertex
100
AcDb2dVertex
 10
54.992522711888185
 20
-86.607477288111824
 30
0.0
  0
VERTEX
  5
14D
100
AcDbEntity
  8
0
370
              15
  6
Continuous
 62
               7
100
AcDbVertex
100
AcDb2dVertex
 10
52.992522711888185
 20
-86.607477288111824
 30
0.0
  0
SEQEND
  5
14E
100
AcDbEntity
  8
0
370
              15
  6
Continuous
 62
               7
  0
WIPEOUT
  5
14F
100
AcDbEntity
  8
0
370
              15
  6
Continuous
 62
               7
 92
        0
100
AcDbWipeout
 90
        0
 10
-11.507477288111829
 20
-86.607477288111824
 30
0.0
 11
12.000000000000014
 21
0.0
 31
0.0
 12
0.0
 22
12.000000000000014
 32
0.0
 13
1.0
 23
1.0
340
0
 70
               7
280
               1
281
              50
282
              50
283
               0
360
0
 71
               2
 91
        5
 14
-0.5
 24
0.3750000000000002
 14
0.5
 24
0.3750000000000002
 14
0.5
 24
0.5
 14
-0.5
 24
0.5
 14
-0.5
 24
0.3750000000000002
  0
POLYLINE
  5
150
100
AcDbEntity
  8
0
370
              15
  6
Continuous
 62
               7
100
AcDb2dPolyline
 66
               1
 10
0.0
 20
0.0
 30
0.0
 70
               1
 75
               5
  0
VERTEX
  5
151
100
AcDbEntity
  8
0
370
              15
  6
Continuous
 62
               7
100
AcDbVertex
100
AcDb2dVertex
 10
-11.507477288111829
 20
-85.107477288111824
 30
0.0
  0
VERTEX
  5
152
100
AcDbEntity
  8
0
370
              15
  6
Continuous
 62
               7
100
AcDbVertex
100
AcDb2dVertex
 10
0.492522711888185
 20
-85.107477288111824
 30
0.0
  0
VERTEX
  5
153
100
AcDbEntity
  8
0
370
              15
  6
Continuous
 62
               7
100
AcDbVertex
100
AcDb2dVertex
 10
0.492522711888185
 20
-86.607477288111824
 30
0.0
  0
VERTEX
  5
154
100
AcDbEntity
  8
0
370
              15
  6
Continuous
 62
               7
100
AcDbVertex
100
AcDb2dVertex
 10
-11.507477288111829
 20
-86.607477288111824
 30
0.0
  0
SEQEND
  5
155
100
AcDbEntity
  8
0
370
              15
  6
Continuous
 62
               7
  0
WIPEOUT
  5
156
100
AcDbEntity
  8
0
370
              15
  6
Continuous
 62
               7
 92
        0
100
AcDbWipeout
 90
        0
 10
-13.107477288111824
 20
-78.607477288111824
 30
0.0
 11
8.0
 21
0.0
 31
0.0
 12
0.0
 22
8.0
 32
0.0
 13
1.0
 23
1.0
340
0
 70
               7
280
               1
281
              50
282
              50
283
               0
360
0
 71
               2
 91
        5
 14
-0.5
 24
-0.5
 14
0.2874999999999996
 24
-0.5
 14
0.2874999999999996
 24
0.5
 14
-0.5
 24
0.5
 14
-0.5
 24
-0.5
  0
POLYLINE
  5
157
100
AcDbEntity
  8
0
370
              15
  6
Continuous
 62
               7
100
AcDb2dPolyline
 66
               1
 10
0.0
 20
0.0
 30
0.0
 70
               1
 75
               5
  0
VERTEX
  5
158
100
AcDbEntity
  8
0
370
              15
  6
Continuous
 62
               7
100
AcDbVertex
100
AcDb2dVertex
 10
-13.107477288111824
 20
-70.607477288111824
 30
0.0
  0
VERTEX
  5
159
100
AcDbEntity
  8
0
370
              15
  6
Continuous
 62
               7
100
AcDbVertex
100
AcDb2dVertex
 10
-6.8074772881118264
 20
-70.607477288111824
 30
0.0
  0
VERTEX
  5
15A
100
AcDbEntity
  8
0
370
              15
  6
Continuous
 62
               7
100
AcDbVertex
100
AcDb2dVertex
 10
-6.8074772881118264
 20
-78.607477288111824
 30
0.0
  0
VERTEX
  5
15B
100
AcDbEntity
  8
0
370
              15
  6
Continuous
 62
               7
100
AcDbVertex
100
AcDb2dVertex
 10
-13.107477288111824
 20
-78.607477288111824
 30
0.0
  0
SEQEND
  5
15C
100
AcDbEntity
  8
0
370
              15
  6
Continuous
 62
               7
  0
WIPEOUT
  5
15D
100
AcDbEntity
  8
0
370
              15
  6
Continuous
 62
               7
 92
        0
100
AcDbWipeout
 90
        0
 10
-6.8074772881118264
 20
-76.007477288111829
 30
0.0
 11
2.7999999999999829
 21
0.0
 31
0.0
 12
0.0
 22
2.7999999999999829
 32
0.0
 13
1.0
 23
1.0
340
0
 70
               7
280
               1
281
              50
282
              50
283
               0
360
0
 71
               2
 91
        5
 14
-0.5
 24
-0.5
 14
0.3214285714285754
 24
-0.5
 14
0.3214285714285754
 24
0.5
 14
-0.5
 24
0.5
 14
-0.5
 24
-0.5
  0
POLYLINE
  5
15E
100
AcDbEntity
  8
0
370
              15
  6
Continuous
 62
               7
100
AcDb2dPolyline
 66
               1
 10
0.0
 20
0.0
 30
0.0
 70
               1
 75
               5
  0
VERTEX
  5
15F
100
AcDbEntity
  8
0
370
              15
  6
Continuous
 62
               7
100
AcDbVertex
100
AcDb2dVertex
 10
-6.8074772881118264
 20
-73.207477288111846
 30
0.0
  0
VERTEX
  5
160
100
AcDbEntity
  8
0
370
              15
  6
Continuous
 62
               7
100
AcDbVertex
100
AcDb2dVertex
 10
-4.5074772881118292
 20
-73.207477288111846
 30
0.0
  0
VERTEX
  5
161
100
AcDbEntity
  8
0
370
              15
  6
Continuous
 62
               7
100
AcDbVertex
100
AcDb2dVertex
 10
-4.5074772881118292
 20
-76.007477288111829
 30
0.0
  0
VERTEX
  5
162
100
AcDbEntity
  8
0
370
              15
  6
Continuous
 62
               7
100
AcDbVertex
100
AcDb2dVertex
 10
-6.8074772881118264
 20
-76.007477288111829
 30
0.0
  0
SEQEND
  5
163
100
AcDbEntity
  8
0
370
              15
  6
Continuous
 62
               7
  0
WIPEOUT
  5
164
100
AcDbEntity
  8
0
370
              15
  6
Continuous
 62
               7
 92
        0
100
AcDbWipeout
 90
        0
 10
-7.007477288111815
 20
-85.107477288111824
 30
0.0
 11
3.0
 21
0.0
 31
0.0
 12
0.0
 22
3.0
 32
0.0
 13
1.0
 23
1.0
340
0
 70
               7
280
               1
281
              50
282
              50
283
               0
360
0
 71
               2
 91
        5
 14
-0.5
 24
-0.5
 14
0.5
 24
-0.5
 14
0.5
 24
0.5
 14
-0.5
 24
0.5
 14
-0.5
 24
-0.5
  0
POLYLINE
  5
165
100
AcDbEntity
  8
0
370
              15
  6
Continuous
 62
               7
100
AcDb2dPolyline
 66
               1
 10
0.0
 20
0.0
 30
0.0
 70
               1
 75
               5
  0
VERTEX
  5
166
100
AcDbEntity
  8
0
370
              15
  6
Continuous
 62
               7
100
AcDbVertex
100
AcDb2dVertex
 10
-7.007477288111815
 20
-82.107477288111824
 30
0.0
  0
VERTEX
  5
167
100
AcDbEntity
  8
0
370
              15
  6
Continuous
 62
               7
100
AcDbVertex
100
AcDb2dVertex
 10
-4.007477288111815
 20
-82.107477288111824
 30
0.0
  0
VERTEX
  5
168
100
AcDbEntity
  8
0
370
              15
  6
Continuous
 62
               7
100
AcDbVertex
100
AcDb2dVertex
 10
-4.007477288111815
 20
-85.107477288111824
 30
0.0
  0
VERTEX
  5
169
100
AcDbEntity
  8
0
370
              15
  6
Continuous
 62
               7
100
AcDbVertex
100
AcDb2dVertex
 10
-7.007477288111815
 20
-85.107477288111824
 30
0.0
  0
SEQEND
  5
16A
100
AcDbEntity
  8
0
370
              15
  6
Continuous
 62
               7
  0
WIPEOUT
  5
16B
100
AcDbEntity
  8
0
370
              15
  6
Continuous
 62
               7
 92
        0
100
AcDbWipeout
 90
        0
 10
-2.9074772881118207
 20
-86.607477288111824
 30
0.0
 11
81.5
 21
0.0
 31
0.0
 12
0.0
 22
81.5
 32
0.0
 13
1.0
 23
1.0
340
0
 70
               7
280
               1
281
              50
282
              50
283
               0
360
0
 71
               2
 91
        5
 14
-0.5
 24
0.085276073619632
 14
0.5
 24
0.085276073619632
 14
0.5
 24
0.5
 14
-0.5
 24
0.5
 14
-0.5
 24
0.085276073619632
  0
POLYLINE
  5
16C
100
AcDbEntity
  8
0
370
              15
  6
Continuous
 62
               7
100
AcDb2dPolyline
 66
               1
 10
0.0
 20
0.0
 30
0.0
 70
               1
 75
               5
  0
VERTEX
  5
16D
100
AcDbEntity
  8
0
370
              15
  6
Continuous
 62
               7
100
AcDbVertex
100
AcDb2dVertex
 10
-2.9074772881118207
 20
-52.807477288111834
 30
0.0
  0
VERTEX
  5
16E
100
AcDbEntity
  8
0
370
              15
  6
Continuous
 62
               7
100
AcDbVertex
100
AcDb2dVertex
 10
78.592522711888179
 20
-52.807477288111834
 30
0.0
  0
VERTEX
  5
16F
100
AcDbEntity
  8
0
370
              15
  6
Continuous
 62
               7
100
AcDbVertex
100
AcDb2dVertex
 10
78.592522711888179
 20
-86.607477288111824
 30
0.0
  0
VERTEX
  5
170
100
AcDbEntity
  8
0
370
              15
  6
Continuous
 62
               7
100
AcDbVertex
100
AcDb2dVertex
 10
-2.9074772881118207
 20
-86.607477288111824
 30
0.0
  0
SEQEND
  5
171
100
AcDbEntity
  8
0
370
              15
  6
Continuous
 62
               7
  0
POLYLINE
  5
172
100
AcDbEntity
  8
0
370
              15
  6
Continuous
 62
               7
100
AcDb2dPolyline
 66
               1
 10
0.0
 20
0.0
 30
0.0
 70
               1
 75
               5
  0
VERTEX
  5
173
100
AcDbEntity
  8
0
370
              15
  6
Continuous
 62
               7
100
AcDbVertex
100
AcDb2dVertex
 10
78.592522711888179
 20
-62.807477288111834
 30
0.0
  0
VERTEX
  5
174
100
AcDbEntity
  8
0
370
              15
  6
Continuous
 62
               7
100
AcDbVertex
100
AcDb2dVertex
 10
98.592522711888208
 20
-62.807477288111834
 30
0.0
  0
VERTEX
  5
175
100
AcDbEntity
  8
0
370
              15
  6
Continuous
 62
               7
100
AcDbVertex
100
AcDb2dVertex
 10
98.592522711888208
 20
-81.407477288111835
 30
0.0
  0
VERTEX
  5
176
100
AcDbEntity
  8
0
370
              15
  6
Continuous
 62
               7
100
AcDbVertex
100
AcDb2dVertex
 10
78.592522711888179
 20
-81.407477288111835
 30
0.0
  0
SEQEND
  5
177
100
AcDbEntity
  8
0
370
              15
  6
Continuous
 62
               7
  0
WIPEOUT
  5
178
100
AcDbEntity
  8
0
370
              15
  6
Continuous
 62
               7
 92
        0
100
AcDbWipeout
 90
        0
 10
85.892522711888205
 20
-85.407477288111835
 30
0.0
 11
10.599999999999994
 21
0.0
 31
0.0
 12
0.0
 22
10.599999999999994
 32
0.0
 13
1.0
 23
1.0
340
0
 70
               7
280
               1
281
              50
282
              50
283
               0
360
0
 71
               2
 91
        5
 14
-0.5
 24
-0.5
 14
0.4433962264150908
 24
-0.5
 14
0.4433962264150908
 24
0.5
 14
-0.5
 24
0.5
 14
-0.5
 24
-0.5
  0
POLYLINE
  5
179
100
AcDbEntity
  8
0
370
              15
  6
Continuous
 62
               7
100
AcDb2dPolyline
 66
               1
 10
0.0
 20
0.0
 30
0.0
 70
               1
 75
               5
  0
VERTEX
  5
17A
100
AcDbEntity
  8
0
370
              15
  6
Continuous
 62
               7
100
AcDbVertex
100
AcDb2dVertex
 10
85.892522711888205
 20
-74.807477288111841
 30
0.0
  0
VERTEX
  5
17B
100
AcDbEntity
  8
0
370
              15
  6
Continuous
 62
               7
100
AcDbVertex
100
AcDb2dVertex
 10
95.892522711888162
 20
-74.807477288111841
 30
0.0
  0
VERTEX
  5
17C
100
AcDbEntity
  8
0
370
              15
  6
Continuous
 62
               7
100
AcDbVertex
100
AcDb2dVertex
 10
95.892522711888162
 20
-85.407477288111835
 30
0.0
  0
VERTEX
  5
17D
100
AcDbEntity
  8
0
370
              15
  6
Continuous
 62
               7
100
AcDbVertex
100
AcDb2dVertex
 10
85.892522711888205
 20
-85.407477288111835
 30
0.0
  0
SEQEND
  5
17E
100
AcDbEntity
  8
0
370
              15
  6
Continuous
 62
               7
  0
WIPEOUT
  5
17F
100
AcDbEntity
  8
0
370
              15
  6
Continuous
 62
               7
 92
        0
100
AcDbWipeout
 90
        0
 10
87.692522711888188
 20
-86.607477288111824
 30
0.0
 11
6.4000000000000199
 21
0.0
 31
0.0
 12
0.0
 22
6.4000000000000199
 32
0.0
 13
1.0
 23
1.0
340
0
 70
               7
280
               1
281
              50
282
              50
283
               0
360
0
 71
               2
 91
        5
 14
-0.5
 24
0.3125000000000023
 14
0.5
 24
0.3125000000000023
 14
0.5
 24
0.5
 14
-0.5
 24
0.5
 14
-0.5
 24
0.3125000000000023
  0
POLYLINE
  5
180
100
AcDbEntity
  8
0
370
              15
  6
Continuous
 62
               7
100
AcDb2dPolyline
 66
               1
 10
0.0
 20
0.0
 30
0.0
 70
               1
 75
               5
  0
VERTEX
  5
181
100
AcDbEntity
  8
0
370
              15
  6
Continuous
 62
               7
100
AcDbVertex
100
AcDb2dVertex
 10
87.692522711888188
 20
-85.407477288111835
 30
0.0
  0
VERTEX
  5
182
100
AcDbEntity
  8
0
370
              15
  6
Continuous
 62
               7
100
AcDbVertex
100
AcDb2dVertex
 10
94.092522711888208
 20
-85.407477288111835
 30
0.0
  0
VERTEX
  5
183
100
AcDbEntity
  8
0
370
              15
  6
Continuous
 62
               7
100
AcDbVertex
100
AcDb2dVertex
 10
94.092522711888208
 20
-86.607477288111824
 30
0.0
  0
VERTEX
  5
184
100
AcDbEntity
  8
0
370
              15
  6
Continuous
 62
               7
100
AcDbVertex
100
AcDb2dVertex
 10
87.692522711888188
 20
-86.607477288111824
 30
0.0
  0
SEQEND
  5
185
100
AcDbEntity
  8
0
370
              15
  6
Continuous
 62
               7
  0
WIPEOUT
  5
186
100
AcDbEntity
  8
0
370
              15
  6
Continuous
 62
               7
 92
        0
100
AcDbWipeout
 90
        0
 10
87.892522711888176
 20
-74.807477288111841
 30
0.0
 11
5.9999999999999858
 21
0.0
 31
0.0
 12
0.0
 22
5.9999999999999858
 32
0.0
 13
1.0
 23
1.0
340
0
 70
               7
280
               1
281
              50
282
              50
283
               0
360
0
 71
               2
 91
        5
 14
-0.5
 24
0.2999999999999967
 14
0.5
 24
0.2999999999999967
 14
0.5
 24
0.5
 14
-0.5
 24
0.5
 14
-0.5
 24
0.2999999999999967
  0
POLYLINE
  5
187
100
AcDbEntity
  8
0
370
              15
  6
Continuous
 62
               7
100
AcDb2dPolyline
 66
               1
 10
0.0
 20
0.0
 30
0.0
 70
               1
 75
               5
  0
VERTEX
  5
188
100
AcDbEntity
  8
0
370
              15
  6
Continuous
 62
               7
100
AcDbVertex
100
AcDb2dVertex
 10
87.892522711888176
 20
-73.607477288111824
 30
0.0
  0
VERTEX
  5
189
100
AcDbEntity
  8
0
370
              15
  6
Continuous
 62
               7
100
AcDbVertex
100
AcDb2dVertex
 10
93.892522711888162
 20
-73.607477288111824
 30
0.0
  0
VERTEX
  5
18A
100
AcDbEntity
  8
0
370
              15
  6
Continuous
 62
               7
100
AcDbVertex
100
AcDb2dVertex
 10
93.892522711888162
 20
-74.807477288111841
 30
0.0
  0
VERTEX
  5
18B
100
AcDbEntity
  8
0
370
              15
  6
Continuous
 62
               7
100
AcDbVertex
100
AcDb2dVertex
 10
87.892522711888176
 20
-74.807477288111841
 30
0.0
  0
SEQEND
  5
18C
100
AcDbEntity
  8
0
370
              15
  6
Continuous
 62
               7
  0
ARC
  5
18D
100
AcDbEntity
  8
0
370
              15
  6
Continuous
 62
               7
100
AcDbCircle
 10
90.922541528574541
 20
-75.608142274800969
 30
0.0
 40
4.3860367198195016
100
AcDbArc
 50
47.290476012034063
 51
134.00728911133615
  0
LINE
  5
18E
100
AcDbEntity
  8
0
370
              15
  6
Continuous
 62
               7
100
AcDbLine
 10
93.892522711888162
 20
-72.407477288111835
 30
0.0
 11
93.892522711888162
 21
-73.607477288111824
 31
0.0
  0
LINE
  5
18F
100
AcDbEntity
  8
0
370
              15
  6
Continuous
 62
               7
100
AcDbLine
 10
87.892522711888176
 20
-72.407477288111835
 30
0.0
 11
87.892522711888176
 21
-73.607477288111824
 31
0.0
  0
WIPEOUT
  5
190
100
AcDbEntity
  8
0
370
              15
  6
Continuous
 62
               7
 92
        0
100
AcDbWipeout
 90
        0
 10
54.992522711888185
 20
-86.607477288111824
 30
0.0
 11
12.0
 21
0.0
 31
0.0
 12
0.0
 22
12.0
 32
0.0
 13
1.0
 23
1.0
340
0
 70
               7
280
               1
281
              50
282
              50
283
               0
360
0
 71
               2
 91
        5
 14
-0.5
 24
0.375
 14
0.5
 24
0.375
 14
0.5
 24
0.5
 14
-0.5
 24
0.5
 14
-0.5
 24
0.375
  0
POLYLINE
  5
191
100
AcDbEntity
  8
0
370
              15
  6
Continuous
 62
               7
100
AcDb2dPolyline
 66
               1
 10
0.0
 20
0.0
 30
0.0
 70
               1
 75
               5
  0
VERTEX
  5
192
100
AcDbEntity
  8
0
370
              15
  6
Continuous
 62
               7
100
AcDbVertex
100
AcDb2dVertex
 10
54.992522711888185
 20
-85.107477288111824
 30
0.0
  0
VERTEX
  5
193
100
AcDbEntity
  8
0
370
              15
  6
Continuous
 62
               7
100
AcDbVertex
100
AcDb2dVertex
 10
66.992522711888185
 20
-85.107477288111824
 30
0.0
  0
VERTEX
  5
194
100
AcDbEntity
  8
0
370
              15
  6
Continuous
 62
               7
100
AcDbVertex
100
AcDb2dVertex
 10
66.992522711888185
 20
-86.607477288111824
 30
0.0
  0
VERTEX
  5
195
100
AcDbEntity
  8
0
370
              15
  6
Continuous
 62
               7
100
AcDbVertex
100
AcDb2dVertex
 10
54.992522711888185
 20
-86.607477288111824
 30
0.0
  0
SEQEND
  5
196
100
AcDbEntity
  8
0
370
              15
  6
Continuous
 62
               7
  0
WIPEOUT
  5
197
100
AcDbEntity
  8
0
370
              15
  6
Continuous
 62
               7
 92
        0
100
AcDbWipeout
 90
        0
 10
54.992522711888185
 20
-82.007477288111829
 30
0.0
 11
11.099999999999994
 21
0.0
 31
0.0
 12
0.0
 22
11.099999999999994
 32
0.0
 13
1.0
 23
1.0
340
0
 70
               7
280
               1
281
              50
282
              50
283
               0
360
0
 71
               2
 91
        5
 14
-0.5
 24
-0.5
 14
-0.2837837837837832
 24
-0.5
 14
-0.2837837837837832
 24
0.5
 14
-0.5
 24
0.5
 14
-0.5
 24
-0.5
  0
POLYLINE
  5
198
100
AcDbEntity
  8
0
370
              15
  6
Continuous
 62
               7
100
AcDb2dPolyline
 66
               1
 10
0.0
 20
0.0
 30
0.0
 70
               1
 75
               5
  0
VERTEX
  5
199
100
AcDbEntity
  8
0
370
              15
  6
Continuous
 62
               7
100
AcDbVertex
100
AcDb2dVertex
 10
54.992522711888185
 20
-70.907477288111835
 30
0.0
  0
VERTEX
  5
19A
100
AcDbEntity
  8
0
370
              15
  6
Continuous
 62
               7
100
AcDbVertex
100
AcDb2dVertex
 10
57.392522711888191
 20
-70.907477288111835
 30
0.0
  0
VERTEX
  5
19B
100
AcDbEntity
  8
0
370
              15
  6
Continuous
 62
               7
100
AcDbVertex
100
AcDb2dVertex
 10
57.392522711888191
 20
-82.007477288111829
 30
0.0
  0
VERTEX
  5
19C
100
AcDbEntity
  8
0
370
              15
  6
Continuous
 62
               7
100
AcDbVertex
100
AcDb2dVertex
 10
54.992522711888185
 20
-82.007477288111829
 30
0.0
  0
SEQEND
  5
19D
100
AcDbEntity
  8
0
370
              15
  6
Continuous
 62
               7
  0
WIPEOUT
  5
19E
100
AcDbEntity
  8
0
370
              15
  6
Continuous
 62
               7
 92
        0
100
AcDbWipeout
 90
        0
 10
59.492522711888185
 20
-85.107477288111824
 30
0.0
 11
3.0
 21
0.0
 31
0.0
 12
0.0
 22
3.0
 32
0.0
 13
1.0
 23
1.0
340
0
 70
               7
280
               1
281
              50
282
              50
283
               0
360
0
 71
               2
 91
        5
 14
-0.5
 24
-0.5
 14
0.5
 24
-0.5
 14
0.5
 24
0.5
 14
-0.5
 24
0.5
 14
-0.5
 24
-0.5
  0
POLYLINE
  5
19F
100
AcDbEntity
  8
0
370
              15
  6
Continuous
 62
               7
100
AcDb2dPolyline
 66
               1
 10
0.0
 20
0.0
 30
0.0
 70
               1
 75
               5
  0
VERTEX
  5
1A0
100
AcDbEntity
  8
0
370
              15
  6
Continuous
 62
               7
100
AcDbVertex
100
AcDb2dVertex
 10
59.492522711888185
 20
-82.107477288111824
 30
0.0
  0
VERTEX
  5
1A1
100
AcDbEntity
  8
0
370
              15
  6
Continuous
 62
               7
100
AcDbVertex
100
AcDb2dVertex
 10
62.492522711888185
 20
-82.107477288111824
 30
0.0
  0
VERTEX
  5
1A2
100
AcDbEntity
  8
0
370
              15
  6
Continuous
 62
               7
100
AcDbVertex
100
AcDb2dVertex
 10
62.492522711888185
 20
-85.107477288111824
 30
0.0
  0
VERTEX
  5
1A3
100
AcDbEntity
  8
0
370
              15
  6
Continuous
 62
               7
100
AcDbVertex
100
AcDb2dVertex
 10
59.492522711888185
 20
-85.107477288111824
 30
0.0
  0
SEQEND
  5
1A4
100
AcDbEntity
  8
0
370
              15
  6
Continuous
 62
               7
  0
WIPEOUT
  5
1A5
100
AcDbEntity
  8
0
370
              15
  6
Continuous
 62
               7
 92
        0
100
AcDbWipeout
 90
        0
 10
2.492522711888185
 20
-86.607477288111824
 30
0.0
 11
50.5
 21
0.0
 31
0.0
 12
0.0
 22
50.5
 32
0.0
 13
1.0
 23
1.0
340
0
 70
               7
280
               1
281
              50
282
              50
283
               0
360
0
 71
               2
 91
        5
 14
-0.5
 24
0.020792079207921
 14
0.5
 24
0.020792079207921
 14
0.5
 24
0.5
 14
-0.5
 24
0.5
 14
-0.5
 24
0.020792079207921
  0
POLYLINE
  5
1A6
100
AcDbEntity
  8
0
370
              15
  6
Continuous
 62
               7
100
AcDb2dPolyline
 66
               1
 10
0.0
 20
0.0
 30
0.0
 70
               1
 75
               5
  0
VERTEX
  5
1A7
100
AcDbEntity
  8
0
370
              15
  6
Continuous
 62
               7
100
AcDbVertex
100
AcDb2dVertex
 10
2.492522711888185
 20
-62.407477288111835
 30
0.0
  0
VERTEX
  5
1A8
100
AcDbEntity
  8
0
370
              15
  6
Continuous
 62
               7
100
AcDbVertex
100
AcDb2dVertex
 10
52.992522711888185
 20
-62.407477288111835
 30
0.0
  0
VERTEX
  5
1A9
100
AcDbEntity
  8
0
370
              15
  6
Continuous
 62
               7
100
AcDbVertex
100
AcDb2dVertex
 10
52.992522711888185
 20
-86.607477288111824
 30
0.0
  0
VERTEX
  5
1AA
100
AcDbEntity
  8
0
370
              15
  6
Continuous
 62
               7
100
AcDbVertex
100
AcDb2dVertex
 10
2.492522711888185
 20
-86.607477288111824
 30
0.0
  0
SEQEND
  5
1AB
100
AcDbEntity
  8
0
370
              15
  6
Continuous
 62
               7
  0
WIPEOUT
  5
1AC
100
AcDbEntity
  8
0
370
              15
  6
Continuous
 62
               7
 92
        0
100
AcDbWipeout
 90
        0
 10
52.992522711888185
 20
-86.607477288111824
 30
0.0
 11
24.199999999999989
 21
0.0
 31
0.0
 12
0.0
 22
24.199999999999989
 32
0.0
 13
1.0
 23
1.0
340
0
 70
               7
280
               1
281
              50
282
              50
283
               0
360
0
 71
               2
 91
        5
 14
-0.5
 24
-0.5
 14
-0.4173553719008264
 24
-0.5
 14
-0.4173553719008264
 24
0.5
 14
-0.5
 24
0.5
 14
-0.5
 24
-0.5
  0
POLYLINE
  5
1AD
100
AcDbEntity
  8
0
370
              15
  6
Continuous
 62
               7
100
AcDb2dPolyline
 66
               1
 10
0.0
 20
0.0
 30
0.0
 70
               1
 75
               5
  0
VERTEX
  5
1AE
100
AcDbEntity
  8
0
370
              15
  6
Continuous
 62
               7
100
AcDbVertex
100
AcDb2dVertex
 10
52.992522711888185
 20
-62.407477288111835
 30
0.0
  0
VERTEX
  5
1AF
100
AcDbEntity
  8
0
370
              15
  6
Continuous
 62
               7
100
AcDbVertex
100
AcDb2dVertex
 10
54.992522711888185
 20
-62.407477288111835
 30
0.0
  0
VERTEX
  5
1B0
100
AcDbEntity
  8
0
370
              15
  6
Continuous
 62
               7
100
AcDbVertex
100
AcDb2dVertex
 10
54.992522711888185
 20
-86.607477288111824
 30
0.0
  0
VERTEX
  5
1B1
100
AcDbEntity
  8
0
370
              15
  6
Continuous
 62
               7
100
AcDbVertex
100
AcDb2dVertex
 10
52.992522711888185
 20
-86.607477288111824
 30
0.0
  0
SEQEND
  5
1B2
100
AcDbEntity
  8
0
370
              15
  6
Continuous
 62
               7
  0
WIPEOUT
  5
1B3
100
AcDbEntity
  8
0
370
              15
  6
Continuous
 62
               7
 92
        0
100
AcDbWipeout
 90
        0
 10
-2.9074772881118207
 20
-86.607477288111824
 30
0.0
 11
81.5
 21
0.0
 31
0.0
 12
0.0
 22
81.5
 32
0.0
 13
1.0
 23
1.0
340
0
 70
               7
280
               1
281
              50
282
              50
283
               0
360
0
 71
               2
 91
        5
 14
-0.5
 24
0.085276073619632
 14
0.5
 24
0.085276073619632
 14
0.5
 24
0.5
 14
-0.5
 24
0.5
 14
-0.5
 24
0.085276073619632
  0
POLYLINE
  5
1B4
100
AcDbEntity
  8
0
370
              15
  6
Continuous
 62
               7
100
AcDb2dPolyline
 66
               1
 10
0.0
 20
0.0
 30
0.0
 70
               1
 75
               5
  0
VERTEX
  5
1B5
100
AcDbEntity
  8
0
370
              15
  6
Continuous
 62
               7
100
AcDbVertex
100
AcDb2dVertex
 10
-2.9074772881118207
 20
-52.807477288111834
 30
0.0
  0
VERTEX
  5
1B6
100
AcDbEntity
  8
0
370
              15
  6
Continuous
 62
               7
100
AcDbVertex
100
AcDb2dVertex
 10
78.592522711888179
 20
-52.807477288111834
 30
0.0
  0
VERTEX
  5
1B7
100
AcDbEntity
  8
0
370
              15
  6
Continuous
 62
               7
100
AcDbVertex
100
AcDb2dVertex
 10
78.592522711888179
 20
-86.607477288111824
 30
0.0
  0
VERTEX
  5
1B8
100
AcDbEntity
  8
0
370
              15
  6
Continuous
 62
               7
100
AcDbVertex
100
AcDb2dVertex
 10
-2.9074772881118207
 20
-86.607477288111824
 30
0.0
  0
SEQEND
  5
1B9
100
AcDbEntity
  8
0
370
              15
  6
Continuous
 62
               7
  0
WIPEOUT
  5
1BA
100
AcDbEntity
  8
0
370
              15
  6
Continuous
 62
               7
 92
        0
100
AcDbWipeout
 90
        0
 10
54.992522711888185
 20
-86.607477288111824
 30
0.0
 11
12.0
 21
0.0
 31
0.0
 12
0.0
 22
12.0
 32
0.0
 13
1.0
 23
1.0
340
0
 70
               7
280
               1
281
              50
282
              50
283
               0
360
0
 71
               2
 91
        5
 14
-0.5
 24
0.375
 14
0.5
 24
0.375
 14
0.5
 24
0.5
 14
-0.5
 24
0.5
 14
-0.5
 24
0.375
  0
POLYLINE
  5
1BB
100
AcDbEntity
  8
0
370
              15
  6
Continuous
 62
               7
100
AcDb2dPolyline
 66
               1
 10
0.0
 20
0.0
 30
0.0
 70
               1
 75
               5
  0
VERTEX
  5
1BC
100
AcDbEntity
  8
0
370
              15
  6
Continuous
 62
               7
100
AcDbVertex
100
AcDb2dVertex
 10
54.992522711888185
 20
-85.107477288111824
 30
0.0
  0
VERTEX
  5
1BD
100
AcDbEntity
  8
0
370
              15
  6
Continuous
 62
               7
100
AcDbVertex
100
AcDb2dVertex
 10
66.992522711888185
 20
-85.107477288111824
 30
0.0
  0
VERTEX
  5
1BE
100
AcDbEntity
  8
0
370
              15
  6
Continuous
 62
               7
100
AcDbVertex
100
AcDb2dVertex
 10
66.992522711888185
 20
-86.607477288111824
 30
0.0
  0
VERTEX
  5
1BF
100
AcDbEntity
  8
0
370
              15
  6
Continuous
 62
               7
100
AcDbVertex
100
AcDb2dVertex
 10
54.992522711888185
 20
-86.607477288111824
 30
0.0
  0
SEQEND
  5
1C0
100
AcDbEntity
  8
0
370
              15
  6
Continuous
 62
               7
  0
WIPEOUT
  5
1C1
100
AcDbEntity
  8
0
370
              15
  6
Continuous
 62
               7
 92
        0
100
AcDbWipeout
 90
        0
 10
54.992522711888185
 20
-82.007477288111829
 30
0.0
 11
11.099999999999994
 21
0.0
 31
0.0
 12
0.0
 22
11.099999999999994
 32
0.0
 13
1.0
 23
1.0
340
0
 70
               7
280
               1
281
              50
282
              50
283
               0
360
0
 71
               2
 91
        5
 14
-0.5
 24
-0.5
 14
-0.2837837837837832
 24
-0.5
 14
-0.2837837837837832
 24
0.5
 14
-0.5
 24
0.5
 14
-0.5
 24
-0.5
  0
POLYLINE
  5
1C2
100
AcDbEntity
  8
0
370
              15
  6
Continuous
 62
               7
100
AcDb2dPolyline
 66
               1
 10
0.0
 20
0.0
 30
0.0
 70
               1
 75
               5
  0
VERTEX
  5
1C3
100
AcDbEntity
  8
0
370
              15
  6
Continuous
 62
               7
100
AcDbVertex
100
AcDb2dVertex
 10
54.992522711888185
 20
-70.907477288111835
 30
0.0
  0
VERTEX
  5
1C4
100
AcDbEntity
  8
0
370
              15
  6
Continuous
 62
               7
100
AcDbVertex
100
AcDb2dVertex
 10
57.392522711888191
 20
-70.907477288111835
 30
0.0
  0
VERTEX
  5
1C5
100
AcDbEntity
  8
0
370
              15
  6
Continuous
 62
               7
100
AcDbVertex
100
AcDb2dVertex
 10
57.392522711888191
 20
-82.007477288111829
 30
0.0
  0
VERTEX
  5
1C6
100
AcDbEntity
  8
0
370
              15
  6
Continuous
 62
               7
100
AcDbVertex
100
AcDb2dVertex
 10
54.992522711888185
 20
-82.007477288111829
 30
0.0
  0
SEQEND
  5
1C7
100
AcDbEntity
  8
0
370
              15
  6
Continuous
 62
               7
  0
WIPEOUT
  5
1C8
100
AcDbEntity
  8
0
370
              15
  6
Continuous
 62
               7
 92
        0
100
AcDbWipeout
 90
        0
 10
59.492522711888185
 20
-85.107477288111824
 30
0.0
 11
3.0
 21
0.0
 31
0.0
 12
0.0
 22
3.0
 32
0.0
 13
1.0
 23
1.0
340
0
 70
               7
280
               1
281
              50
282
              50
283
               0
360
0
 71
               2
 91
        5
 14
-0.5
 24
-0.5
 14
0.5
 24
-0.5
 14
0.5
 24
0.5
 14
-0.5
 24
0.5
 14
-0.5
 24
-0.5
  0
POLYLINE
  5
1C9
100
AcDbEntity
  8
0
370
              15
  6
Continuous
 62
               7
100
AcDb2dPolyline
 66
               1
 10
0.0
 20
0.0
 30
0.0
 70
               1
 75
               5
  0
VERTEX
  5
1CA
100
AcDbEntity
  8
0
370
              15
  6
Continuous
 62
               7
100
AcDbVertex
100
AcDb2dVertex
 10
59.492522711888185
 20
-82.107477288111824
 30
0.0
  0
VERTEX
  5
1CB
100
AcDbEntity
  8
0
370
              15
  6
Continuous
 62
               7
100
AcDbVertex
100
AcDb2dVertex
 10
62.492522711888185
 20
-82.107477288111824
 30
0.0
  0
VERTEX
  5
1CC
100
AcDbEntity
  8
0
370
              15
  6
Continuous
 62
               7
100
AcDbVertex
100
AcDb2dVertex
 10
62.492522711888185
 20
-85.107477288111824
 30
0.0
  0
VERTEX
  5
1CD
100
AcDbEntity
  8
0
370
              15
  6
Continuous
 62
               7
100
AcDbVertex
100
AcDb2dVertex
 10
59.492522711888185
 20
-85.107477288111824
 30
0.0
  0
SEQEND
  5
1CE
100
AcDbEntity
  8
0
370
              15
  6
Continuous
 62
               7
  0
WIPEOUT
  5
1CF
100
AcDbEntity
  8
0
370
              15
  6
Continuous
 62
               7
 92
        0
100
AcDbWipeout
 90
        0
 10
-2.9074772881118207
 20
-86.607477288111824
 30
0.0
 11
81.5
 21
0.0
 31
0.0
 12
0.0
 22
81.5
 32
0.0
 13
1.0
 23
1.0
340
0
 70
               7
280
               1
281
              50
282
              50
283
               0
360
0
 71
               2
 91
        5
 14
-0.5
 24
0.085276073619632
 14
0.5
 24
0.085276073619632
 14
0.5
 24
0.5
 14
-0.5
 24
0.5
 14
-0.5
 24
0.085276073619632
  0
POLYLINE
  5
1D0
100
AcDbEntity
  8
0
370
              15
  6
Continuous
 62
               7
100
AcDb2dPolyline
 66
               1
 10
0.0
 20
0.0
 30
0.0
 70
               1
 75
               5
  0
VERTEX
  5
1D1
100
AcDbEntity
  8
0
370
              15
  6
Continuous
 62
               7
100
AcDbVertex
100
AcDb2dVertex
 10
-2.9074772881118207
 20
-52.807477288111834
 30
0.0
  0
VERTEX
  5
1D2
100
AcDbEntity
  8
0
370
              15
  6
Continuous
 62
               7
100
AcDbVertex
100
AcDb2dVertex
 10
78.592522711888179
 20
-52.807477288111834
 30
0.0
  0
VERTEX
  5
1D3
100
AcDbEntity
  8
0
370
              15
  6
Continuous
 62
               7
100
AcDbVertex
100
AcDb2dVertex
 10
78.592522711888179
 20
-86.607477288111824
 30
0.0
  0
VERTEX
  5
1D4
100
AcDbEntity
  8
0
370
              15
  6
Continuous
 62
               7
100
AcDbVertex
100
AcDb2dVertex
 10
-2.9074772881118207
 20
-86.607477288111824
 30
0.0
  0
SEQEND
  5
1D5
100
AcDbEntity
  8
0
370
              15
  6
Continuous
 62
               7
  0
WIPEOUT
  5
1D6
100
AcDbEntity
  8
0
370
              15
  6
Continuous
 62
               7
 92
        0
100
AcDbWipeout
 90
        0
 10
2.492522711888185
 20
-86.607477288111824
 30
0.0
 11
50.5
 21
0.0
 31
0.0
 12
0.0
 22
50.5
 32
0.0
 13
1.0
 23
1.0
340
0
 70
               7
280
               1
281
              50
282
              50
283
               0
360
0
 71
               2
 91
        5
 14
-0.5
 24
0.020792079207921
 14
0.5
 24
0.020792079207921
 14
0.5
 24
0.5
 14
-0.5
 24
0.5
 14
-0.5
 24
0.020792079207921
  0
POLYLINE
  5
1D7
100
AcDbEntity
  8
0
370
              15
  6
Continuous
 62
               7
100
AcDb2dPolyline
 66
               1
 10
0.0
 20
0.0
 30
0.0
 70
               1
 75
               5
  0
VERTEX
  5
1D8
100
AcDbEntity
  8
0
370
              15
  6
Continuous
 62
               7
100
AcDbVertex
100
AcDb2dVertex
 10
2.492522711888185
 20
-62.407477288111835
 30
0.0
  0
VERTEX
  5
1D9
100
AcDbEntity
  8
0
370
              15
  6
Continuous
 62
               7
100
AcDbVertex
100
AcDb2dVertex
 10
52.992522711888185
 20
-62.407477288111835
 30
0.0
  0
VERTEX
  5
1DA
100
AcDbEntity
  8
0
370
              15
  6
Continuous
 62
               7
100
AcDbVertex
100
AcDb2dVertex
 10
52.992522711888185
 20
-86.607477288111824
 30
0.0
  0
VERTEX
  5
1DB
100
AcDbEntity
  8
0
370
              15
  6
Continuous
 62
               7
100
AcDbVertex
100
AcDb2dVertex
 10
2.492522711888185
 20
-86.607477288111824
 30
0.0
  0
SEQEND
  5
1DC
100
AcDbEntity
  8
0
370
              15
  6
Continuous
 62
               7
  0
WIPEOUT
  5
1DD
100
AcDbEntity
  8
0
370
              15
  6
Continuous
 62
               7
 92
        0
100
AcDbWipeout
 90
        0
 10
52.992522711888185
 20
-86.607477288111824
 30
0.0
 11
24.199999999999989
 21
0.0
 31
0.0
 12
0.0
 22
24.199999999999989
 32
0.0
 13
1.0
 23
1.0
340
0
 70
               7
280
               1
281
              50
282
              50
283
               0
360
0
 71
               2
 91
        5
 14
-0.5
 24
-0.5
 14
-0.4173553719008264
 24
-0.5
 14
-0.4173553719008264
 24
0.5
 14
-0.5
 24
0.5
 14
-0.5
 24
-0.5
  0
POLYLINE
  5
1DE
100
AcDbEntity
  8
0
370
              15
  6
Continuous
 62
               7
100
AcDb2dPolyline
 66
               1
 10
0.0
 20
0.0
 30
0.0
 70
               1
 75
               5
  0
VERTEX
  5
1DF
100
AcDbEntity
  8
0
370
              15
  6
Continuous
 62
               7
100
AcDbVertex
100
AcDb2dVertex
 10
52.992522711888185
 20
-62.407477288111835
 30
0.0
  0
VERTEX
  5
1E0
100
AcDbEntity
  8
0
370
              15
  6
Continuous
 62
               7
100
AcDbVertex
100
AcDb2dVertex
 10
54.992522711888185
 20
-62.407477288111835
 30
0.0
  0
VERTEX
  5
1E1
100
AcDbEntity
  8
0
370
              15
  6
Continuous
 62
               7
100
AcDbVertex
100
AcDb2dVertex
 10
54.992522711888185
 20
-86.607477288111824
 30
0.0
  0
VERTEX
  5
1E2
100
AcDbEntity
  8
0
370
              15
  6
Continuous
 62
               7
100
AcDbVertex
100
AcDb2dVertex
 10
52.992522711888185
 20
-86.607477288111824
 30
0.0
  0
SEQEND
  5
1E3
100
AcDbEntity
  8
0
370
              15
  6
Continuous
 62
               7
  0
WIPEOUT
  5
1E4
100
AcDbEntity
  8
0
370
              15
  6
Continuous
 62
               7
 92
        0
100
AcDbWipeout
 90
        0
 10
54.992522711888185
 20
-86.607477288111824
 30
0.0
 11
12.0
 21
0.0
 31
0.0
 12
0.0
 22
12.0
 32
0.0
 13
1.0
 23
1.0
340
0
 70
               7
280
               1
281
              50
282
              50
283
               0
360
0
 71
               2
 91
        5
 14
-0.5
 24
0.375
 14
0.5
 24
0.375
 14
0.5
 24
0.5
 14
-0.5
 24
0.5
 14
-0.5
 24
0.375
  0
POLYLINE
  5
1E5
100
AcDbEntity
  8
0
370
              15
  6
Continuous
 62
               7
100
AcDb2dPolyline
 66
               1
 10
0.0
 20
0.0
 30
0.0
 70
               1
 75
               5
  0
VERTEX
  5
1E6
100
AcDbEntity
  8
0
370
              15
  6
Continuous
 62
               7
100
AcDbVertex
100
AcDb2dVertex
 10
54.992522711888185
 20
-85.107477288111824
 30
0.0
  0
VERTEX
  5
1E7
100
AcDbEntity
  8
0
370
              15
  6
Continuous
 62
               7
100
AcDbVertex
100
AcDb2dVertex
 10
66.992522711888185
 20
-85.107477288111824
 30
0.0
  0
VERTEX
  5
1E8
100
AcDbEntity
  8
0
370
              15
  6
Continuous
 62
               7
100
AcDbVertex
100
AcDb2dVertex
 10
66.992522711888185
 20
-86.607477288111824
 30
0.0
  0
VERTEX
  5
1E9
100
AcDbEntity
  8
0
370
              15
  6
Continuous
 62
               7
100
AcDbVertex
100
AcDb2dVertex
 10
54.992522711888185
 20
-86.607477288111824
 30
0.0
  0
SEQEND
  5
1EA
100
AcDbEntity
  8
0
370
              15
  6
Continuous
 62
               7
  0
WIPEOUT
  5
1EB
100
AcDbEntity
  8
0
370
              15
  6
Continuous
 62
               7
 92
        0
100
AcDbWipeout
 90
        0
 10
54.992522711888185
 20
-82.007477288111829
 30
0.0
 11
11.099999999999994
 21
0.0
 31
0.0
 12
0.0
 22
11.099999999999994
 32
0.0
 13
1.0
 23
1.0
340
0
 70
               7
280
               1
281
              50
282
              50
283
               0
360
0
 71
               2
 91
        5
 14
-0.5
 24
-0.5
 14
-0.2837837837837832
 24
-0.5
 14
-0.2837837837837832
 24
0.5
 14
-0.5
 24
0.5
 14
-0.5
 24
-0.5
  0
POLYLINE
  5
1EC
100
AcDbEntity
  8
0
370
              15
  6
Continuous
 62
               7
100
AcDb2dPolyline
 66
               1
 10
0.0
 20
0.0
 30
0.0
 70
               1
 75
               5
  0
VERTEX
  5
1ED
100
AcDbEntity
  8
0
370
              15
  6
Continuous
 62
               7
100
AcDbVertex
100
AcDb2dVertex
 10
54.992522711888185
 20
-70.907477288111835
 30
0.0
  0
VERTEX
  5
1EE
100
AcDbEntity
  8
0
370
              15
  6
Continuous
 62
               7
100
AcDbVertex
100
AcDb2dVertex
 10
57.392522711888191
 20
-70.907477288111835
 30
0.0
  0
VERTEX
  5
1EF
100
AcDbEntity
  8
0
370
              15
  6
Continuous
 62
               7
100
AcDbVertex
100
AcDb2dVertex
 10
57.392522711888191
 20
-82.007477288111829
 30
0.0
  0
VERTEX
  5
1F0
100
AcDbEntity
  8
0
370
              15
  6
Continuous
 62
               7
100
AcDbVertex
100
AcDb2dVertex
 10
54.992522711888185
 20
-82.007477288111829
 30
0.0
  0
SEQEND
  5
1F1
100
AcDbEntity
  8
0
370
              15
  6
Continuous
 62
               7
  0
WIPEOUT
  5
1F2
100
AcDbEntity
  8
0
370
              15
  6
Continuous
 62
               7
 92
        0
100
AcDbWipeout
 90
        0
 10
59.492522711888185
 20
-85.107477288111824
 30
0.0
 11
3.0
 21
0.0
 31
0.0
 12
0.0
 22
3.0
 32
0.0
 13
1.0
 23
1.0
340
0
 70
               7
280
               1
281
              50
282
              50
283
               0
360
0
 71
               2
 91
        5
 14
-0.5
 24
-0.5
 14
0.5
 24
-0.5
 14
0.5
 24
0.5
 14
-0.5
 24
0.5
 14
-0.5
 24
-0.5
  0
POLYLINE
  5
1F3
100
AcDbEntity
  8
0
370
              15
  6
Continuous
 62
               7
100
AcDb2dPolyline
 66
               1
 10
0.0
 20
0.0
 30
0.0
 70
               1
 75
               5
  0
VERTEX
  5
1F4
100
AcDbEntity
  8
0
370
              15
  6
Continuous
 62
               7
100
AcDbVertex
100
AcDb2dVertex
 10
59.492522711888185
 20
-82.107477288111824
 30
0.0
  0
VERTEX
  5
1F5
100
AcDbEntity
  8
0
370
              15
  6
Continuous
 62
               7
100
AcDbVertex
100
AcDb2dVertex
 10
62.492522711888185
 20
-82.107477288111824
 30
0.0
  0
VERTEX
  5
1F6
100
AcDbEntity
  8
0
370
              15
  6
Continuous
 62
               7
100
AcDbVertex
100
AcDb2dVertex
 10
62.492522711888185
 20
-85.107477288111824
 30
0.0
  0
VERTEX
  5
1F7
100
AcDbEntity
  8
0
370
              15
  6
Continuous
 62
               7
100
AcDbVertex
100
AcDb2dVertex
 10
59.492522711888185
 20
-85.107477288111824
 30
0.0
  0
SEQEND
  5
1F8
100
AcDbEntity
  8
0
370
              15
  6
Continuous
 62
               7
  0
WIPEOUT
  5
1F9
100
AcDbEntity
  8
0
370
              15
  6
Continuous
 62
               7
 92
        0
100
AcDbWipeout
 90
        0
 10
-15.499999999999984
 20
-88.607477288111824
 30
0.0
 11
2.0
 21
0.0
 31
0.0
 12
0.0
 22
2.0
 32
0.0
 13
1.0
 23
1.0
340
0
 70
               7
280
               1
281
              50
282
              50
283
               0
360
0
 71
               2
 91
       19
 14
0.4999999999999991
 24
0.5
 14
0.4019828596704382
 24
0.4951847266721927
 14
0.3049096779838711
 24
0.4807852804032322
 14
0.2097153227455371
 24
0.4569403357322059
 14
0.1173165676349095
 24
0.4238795325112861
 14
0.0286032631740021
 24
0.3819212643483567
 14
-0.0555702330196022
 24
0.3314696123025414
 14
-0.1343932841636457
 24
0.2730104533627369
 14
-0.2071067811865479
 24
0.2071067811865461
 14
-0.2730104533627369
 24
0.1343932841636431
 14
-0.3314696123025458
 24
0.0555702330196013
 14
-0.3819212643483549
 24
-0.0286032631740056
 14
-0.423879532511287
 24
-0.1173165676349086
 14
-0.4569403357322086
 24
-0.209715322745538
 14
-0.4807852804032304
 24
-0.304909677983872
 14
-0.4951847266721972
 24
-0.40198285967044
 14
-0.5
 24
-0.5
 14
0.4999999999999991
 24
-0.5
 14
0.4999999999999991
 24
0.5
  0
ARC
  5
1FA
100
AcDbEntity
  8
0
370
              15
  6
Continuous
 62
               7
100
AcDbCircle
 10
-13.499999999999986
 20
-86.607477288111824
 30
0.0
 40
1.9999999999999982
100
AcDbArc
 50
180.0
 51
270.0
  0
LINE
  5
1FB
100
AcDbEntity
  8
0
370
              15
  6
Continuous
 62
               7
100
AcDbLine
 10
-15.499999999999984
 20
-86.607477288111824
 30
0.0
 11
-15.499999999999984
 21
-46.607477288111831
 31
0.0
  0
LINE
  5
1FC
100
AcDbEntity
  8
0
370
              15
  6
Continuous
 62
               7
100
AcDbLine
 10
-15.499999999999984
 20
-46.607477288111831
 30
0.0
 11
-13.499999999999986
 21
-46.607477288111831
 31
0.0
  0
LINE
  5
1FD
100
AcDbEntity
  8
0
370
              15
  6
Continuous
 62
               7
100
AcDbLine
 10
-13.499999999999986
 20
-46.607477288111831
 30
0.0
 11
-13.499999999999986
 21
-86.184343354100349
 31
0.0
  0
WIPEOUT
  5
1FE
100
AcDbEntity
  8
0
370
              15
  6
Continuous
 62
               7
 92
        0
100
AcDbWipeout
 90
        0
 10
-13.499999999999986
 20
-86.584343354100341
 30
0.0
 11
0.3999999999999915
 21
0.0
 31
0.0
 12
0.0
 22
0.3999999999999915
 32
0.0
 13
1.0
 23
1.0
340
0
 70
               7
280
               1
281
              50
282
              50
283
               0
360
0
 71
               2
 91
       19
 14
0.5
 24
0.5
 14
0.4019828596704397
 24
0.4951847266721926
 14
0.3049096779838733
 24
0.4807852804032389
 14
0.2097153227455362
 24
0.4569403357322264
 14
0.1173165676349112
 24
0.4238795325112845
 14
0.0286032631740035
 24
0.3819212643483542
 14
-0.0555702330196007
 24
0.3314696123025378
 14
-0.1343932841636459
 24
0.2730104533627534
 14
-0.2071067811865479
 24
0.2071067811865612
 14
-0.2730104533627356
 24
0.1343932841636282
 14
-0.3314696123025467
 24
0.0555702330195918
 14
-0.3819212643483542
 24
-0.0286032631740168
 14
-0.4238795325112845
 24
-0.1173165676348934
 14
-0.4569403357322086
 24
-0.2097153227455317
 14
-0.48078528040323
 24
-0.3049096779838821
 14
-0.495184726672197
 24
-0.4019828596704308
 14
-0.5
 24
-0.5
 14
0.5
 24
-0.5
 14
0.5
 24
0.5
  0
ARC
  5
1FF
100
AcDbEntity
  8
0
370
              15
  6
Continuous
 62
               7
100
AcDbCircle
 10
-13.099999999999994
 20
-86.184343354100349
 30
0.0
 40
0.3999999999999915
100
AcDbArc
 50
180.0
 51
270.0
  0
LINE
  5
200
100
AcDbEntity
  8
0
370
              15
  6
Continuous
 62
               7
100
AcDbLine
 10
-13.099999999999994
 20
-86.584343354100326
 30
0.0
 11
114.50000000000001
 21
-86.607477288111824
 31
0.0
  0
LINE
  5
201
100
AcDbEntity
  8
0
370
              15
  6
Continuous
 62
               7
100
AcDbLine
 10
114.50000000000001
 20
-86.607477288111824
 30
0.0
 11
114.50000000000001
 21
-88.607477288111824
 31
0.0
  0
LINE
  5
202
100
AcDbEntity
  8
0
370
              15
  6
Continuous
 62
               7
100
AcDbLine
 10
114.50000000000001
 20
-88.607477288111824
 30
0.0
 11
-13.499999999999986
 21
-88.607477288111824
 31
0.0
  0
WIPEOUT
  5
203
100
AcDbEntity
  8
0
370
              15
  6
Continuous
 62
               7
 92
        0
100
AcDbWipeout
 90
        0
 10
0.492522711888185
 20
-86.607477288111824
 30
0.0
 11
24.199999999999989
 21
0.0
 31
0.0
 12
0.0
 22
24.199999999999989
 32
0.0
 13
1.0
 23
1.0
340
0
 70
               7
280
               1
281
              50
282
              50
283
               0
360
0
 71
               2
 91
        5
 14
-0.5
 24
-0.5
 14
-0.4173553719008264
 24
-0.5
 14
-0.4173553719008264
 24
0.5
 14
-0.5
 24
0.5
 14
-0.5
 24
-0.5
  0
POLYLINE
  5
204
100
AcDbEntity
  8
0
370
              15
  6
Continuous
 62
               7
100
AcDb2dPolyline
 66
               1
 10
0.0
 20
0.0
 30
0.0
 70
               1
 75
               5
  0
VERTEX
  5
205
100
AcDbEntity
  8
0
370
              15
  6
Continuous
 62
               7
100
AcDbVertex
100
AcDb2dVertex
 10
0.492522711888185
 20
-62.407477288111835
 30
0.0
  0
VERTEX
  5
206
100
AcDbEntity
  8
0
370
              15
  6
Continuous
 62
               7
100
AcDbVertex
100
AcDb2dVertex
 10
2.492522711888185
 20
-62.407477288111835
 30
0.0
  0
VERTEX
  5
207
100
AcDbEntity
  8
0
370
              15
  6
Continuous
 62
               7
100
AcDbVertex
100
AcDb2dVertex
 10
2.492522711888185
 20
-86.607477288111824
 30
0.0
  0
VERTEX
  5
208
100
AcDbEntity
  8
0
370
              15
  6
Continuous
 62
               7
100
AcDbVertex
100
AcDb2dVertex
 10
0.492522711888185
 20
-86.607477288111824
 30
0.0
  0
SEQEND
  5
209
100
AcDbEntity
  8
0
370
              15
  6
Continuous
 62
               7
  0
WIPEOUT
  5
20A
100
AcDbEntity
  8
0
370
              15
  6
Continuous
 62
               7
 92
        0
100
AcDbWipeout
 90
        0
 10
-4.5074772881118292
 20
-77.757477288111829
 30
0.0
 11
6.3000000000000114
 21
0.0
 31
0.0
 12
0.0
 22
6.3000000000000114
 32
0.0
 13
1.0
 23
1.0
340
0
 70
               7
280
               1
281
              50
282
              50
283
               0
360
0
 71
               2
 91
        5
 14
-0.5
 24
-0.5
 14
-0.0238095238095224
 24
-0.5
 14
-0.0238095238095224
 24
0.5
 14
-0.5
 24
0.5
 14
-0.5
 24
-0.5
  0
POLYLINE
  5
20B
100
AcDbEntity
  8
0
370
              15
  6
Continuous
 62
               7
100
AcDb2dPolyline
 66
               1
 10
0.0
 20
0.0
 30
0.0
 70
               1
 75
               5
  0
VERTEX
  5
20C
100
AcDbEntity
  8
0
370
              15
  6
Continuous
 62
               7
100
AcDbVertex
100
AcDb2dVertex
 10
-4.5074772881118292
 20
-71.457477288111818
 30
0.0
  0
VERTEX
  5
20D
100
AcDbEntity
  8
0
370
              15
  6
Continuous
 62
               7
100
AcDbVertex
100
AcDb2dVertex
 10
-1.507477288111815
 20
-71.457477288111818
 30
0.0
  0
VERTEX
  5
20E
100
AcDbEntity
  8
0
370
              15
  6
Continuous
 62
               7
100
AcDbVertex
100
AcDb2dVertex
 10
-1.507477288111815
 20
-77.757477288111829
 30
0.0
  0
VERTEX
  5
20F
100
AcDbEntity
  8
0
370
              15
  6
Continuous
 62
               7
100
AcDbVertex
100
AcDb2dVertex
 10
-4.5074772881118292
 20
-77.757477288111829
 30
0.0
  0
SEQEND
  5
210
100
AcDbEntity
  8
0
370
              15
  6
Continuous
 62
               7
  0
WIPEOUT
  5
211
100
AcDbEntity
  8
0
370
              15
  6
Continuous
 62
               7
 92
        0
100
AcDbWipeout
 90
        0
 10
-1.507477288111815
 20
-79.472477288111833
 30
0.0
 11
9.7400000000000091
 21
0.0
 31
0.0
 12
0.0
 22
9.7400000000000091
 32
0.0
 13
1.0
 23
1.0
340
0
 70
               7
280
               1
281
              50
282
              50
283
               0
360
0
 71
               2
 91
        5
 14
-0.5
 24
-0.5
 14
-0.2946611909650926
 24
-0.5
 14
-0.2946611909650926
 24
0.5
 14
-0.5
 24
0.5
 14
-0.5
 24
-0.5
  0
POLYLINE
  5
212
100
AcDbEntity
  8
0
370
              15
  6
Continuous
 62
               7
100
AcDb2dPolyline
 66
               1
 10
0.0
 20
0.0
 30
0.0
 70
               1
 75
               5
  0
VERTEX
  5
213
100
AcDbEntity
  8
0
370
              15
  6
Continuous
 62
               7
100
AcDbVertex
100
AcDb2dVertex
 10
-1.507477288111815
 20
-69.732477288111824
 30
0.0
  0
VERTEX
  5
214
100
AcDbEntity
  8
0
370
              15
  6
Continuous
 62
               7
100
AcDbVertex
100
AcDb2dVertex
 10
0.492522711888185
 20
-69.732477288111824
 30
0.0
  0
VERTEX
  5
215
100
AcDbEntity
  8
0
370
              15
  6
Continuous
 62
               7
100
AcDbVertex
100
AcDb2dVertex
 10
0.492522711888185
 20
-79.472477288111833
 30
0.0
  0
VERTEX
  5
216
100
AcDbEntity
  8
0
370
              15
  6
Continuous
 62
               7
100
AcDbVertex
100
AcDb2dVertex
 10
-1.507477288111815
 20
-79.472477288111833
 30
0.0
  0
SEQEND
  5
217
100
AcDbEntity
  8
0
370
              15
  6
Continuous
 62
               7
  0
WIPEOUT
  5
218
100
AcDbEntity
  8
0
370
              15
  6
Continuous
 62
               7
 92
        0
100
AcDbWipeout
 90
        0
 10
-1.507477288111815
 20
-76.977477288111828
 30
0.0
 11
4.8700000000000045
 21
0.0
 31
0.0
 12
0.0
 22
4.8700000000000045
 32
0.0
 13
1.0
 23
1.0
340
0
 70
               7
280
               1
281
              50
282
              50
283
               0
360
0
 71
               2
 91
        5
 14
-0.5
 24
-0.5
 14
-0.0893223819301852
 24
-0.5
 14
-0.0893223819301852
 24
0.5
 14
-0.5
 24
0.5
 14
-0.5
 24
-0.5
  0
POLYLINE
  5
219
100
AcDbEntity
  8
0
370
              15
  6
Continuous
 62
               7
100
AcDb2dPolyline
 66
               1
 10
0.0
 20
0.0
 30
0.0
 70
               1
 75
               5
  0
VERTEX
  5
21A
100
AcDbEntity
  8
0
370
              15
  6
Continuous
 62
               7
100
AcDbVertex
100
AcDb2dVertex
 10
-1.507477288111815
 20
-72.107477288111824
 30
0.0
  0
VERTEX
  5
21B
100
AcDbEntity
  8
0
370
              15
  6
Continuous
 62
               7
100
AcDbVertex
100
AcDb2dVertex
 10
0.492522711888185
 20
-72.107477288111824
 30
0.0
  0
VERTEX
  5
21C
100
AcDbEntity
  8
0
370
              15
  6
Continuous
 62
               7
100
AcDbVertex
100
AcDb2dVertex
 10
0.492522711888185
 20
-76.977477288111828
 30
0.0
  0
VERTEX
  5
21D
100
AcDbEntity
  8
0
370
              15
  6
Continuous
 62
               7
100
AcDbVertex
100
AcDb2dVertex
 10
-1.507477288111815
 20
-76.977477288111828
 30
0.0
  0
SEQEND
  5
21E
100
AcDbEntity
  8
0
370
              15
  6
Continuous
 62
               7
  0
WIPEOUT
  5
21F
100
AcDbEntity
  8
0
370
              15
  6
Continuous
 62
               7
 92
        0
100
AcDbWipeout
 90
        0
 10
0.492522711888185
 20
-86.607477288111824
 30
0.0
 11
24.199999999999989
 21
0.0
 31
0.0
 12
0.0
 22
24.199999999999989
 32
0.0
 13
1.0
 23
1.0
340
0
 70
               7
280
               1
281
              50
282
              50
283
               0
360
0
 71
               2
 91
        5
 14
-0.5
 24
-0.5
 14
-0.4173553719008264
 24
-0.5
 14
-0.4173553719008264
 24
0.5
 14
-0.5
 24
0.5
 14
-0.5
 24
-0.5
  0
POLYLINE
  5
220
100
AcDbEntity
  8
0
370
              15
  6
Continuous
 62
               7
100
AcDb2dPolyline
 66
               1
 10
0.0
 20
0.0
 30
0.0
 70
               1
 75
               5
  0
VERTEX
  5
221
100
AcDbEntity
  8
0
370
              15
  6
Continuous
 62
               7
100
AcDbVertex
100
AcDb2dVertex
 10
0.492522711888185
 20
-62.407477288111835
 30
0.0
  0
VERTEX
  5
222
100
AcDbEntity
  8
0
370
              15
  6
Continuous
 62
               7
100
AcDbVertex
100
AcDb2dVertex
 10
2.492522711888185
 20
-62.407477288111835
 30
0.0
  0
VERTEX
  5
223
100
AcDbEntity
  8
0
370
              15
  6
Continuous
 62
               7
100
AcDbVertex
100
AcDb2dVertex
 10
2.492522711888185
 20
-86.607477288111824
 30
0.0
  0
VERTEX
  5
224
100
AcDbEntity
  8
0
370
              15
  6
Continuous
 62
               7
100
AcDbVertex
100
AcDb2dVertex
 10
0.492522711888185
 20
-86.607477288111824
 30
0.0
  0
SEQEND
  5
225
100
AcDbEntity
  8
0
370
              15
  6
Continuous
 62
               7
  0
WIPEOUT
  5
226
100
AcDbEntity
  8
0
370
              15
  6
Continuous
 62
               7
 92
        0
100
AcDbWipeout
 90
        0
 10
-1.507477288111815
 20
-79.472477288111833
 30
0.0
 11
9.7400000000000091
 21
0.0
 31
0.0
 12
0.0
 22
9.7400000000000091
 32
0.0
 13
1.0
 23
1.0
340
0
 70
               7
280
               1
281
              50
282
              50
283
               0
360
0
 71
               2
 91
        5
 14
-0.5
 24
-0.5
 14
-0.2946611909650926
 24
-0.5
 14
-0.2946611909650926
 24
0.5
 14
-0.5
 24
0.5
 14
-0.5
 24
-0.5
  0
POLYLINE
  5
227
100
AcDbEntity
  8
0
370
              15
  6
Continuous
 62
               7
100
AcDb2dPolyline
 66
               1
 10
0.0
 20
0.0
 30
0.0
 70
               1
 75
               5
  0
VERTEX
  5
228
100
AcDbEntity
  8
0
370
              15
  6
Continuous
 62
               7
100
AcDbVertex
100
AcDb2dVertex
 10
-1.507477288111815
 20
-69.732477288111824
 30
0.0
  0
VERTEX
  5
229
100
AcDbEntity
  8
0
370
              15
  6
Continuous
 62
               7
100
AcDbVertex
100
AcDb2dVertex
 10
0.492522711888185
 20
-69.732477288111824
 30
0.0
  0
VERTEX
  5
22A
100
AcDbEntity
  8
0
370
              15
  6
Continuous
 62
               7
100
AcDbVertex
100
AcDb2dVertex
 10
0.492522711888185
 20
-79.472477288111833
 30
0.0
  0
VERTEX
  5
22B
100
AcDbEntity
  8
0
370
              15
  6
Continuous
 62
               7
100
AcDbVertex
100
AcDb2dVertex
 10
-1.507477288111815
 20
-79.472477288111833
 30
0.0
  0
SEQEND
  5
22C
100
AcDbEntity
  8
0
370
              15
  6
Continuous
 62
               7
  0
WIPEOUT
  5
22D
100
AcDbEntity
  8
0
370
              15
  6
Continuous
 62
               7
 92
        0
100
AcDbWipeout
 90
        0
 10
-1.507477288111815
 20
-76.977477288111828
 30
0.0
 11
4.8700000000000045
 21
0.0
 31
0.0
 12
0.0
 22
4.8700000000000045
 32
0.0
 13
1.0
 23
1.0
340
0
 70
               7
280
               1
281
              50
282
              50
283
               0
360
0
 71
               2
 91
        5
 14
-0.5
 24
-0.5
 14
-0.0893223819301852
 24
-0.5
 14
-0.0893223819301852
 24
0.5
 14
-0.5
 24
0.5
 14
-0.5
 24
-0.5
  0
POLYLINE
  5
22E
100
AcDbEntity
  8
0
370
              15
  6
Continuous
 62
               7
100
AcDb2dPolyline
 66
               1
 10
0.0
 20
0.0
 30
0.0
 70
               1
 75
               5
  0
VERTEX
  5
22F
100
AcDbEntity
  8
0
370
              15
  6
Continuous
 62
               7
100
AcDbVertex
100
AcDb2dVertex
 10
-1.507477288111815
 20
-72.107477288111824
 30
0.0
  0
VERTEX
  5
230
100
AcDbEntity
  8
0
370
              15
  6
Continuous
 62
               7
100
AcDbVertex
100
AcDb2dVertex
 10
0.492522711888185
 20
-72.107477288111824
 30
0.0
  0
VERTEX
  5
231
100
AcDbEntity
  8
0
370
              15
  6
Continuous
 62
               7
100
AcDbVertex
100
AcDb2dVertex
 10
0.492522711888185
 20
-76.977477288111828
 30
0.0
  0
VERTEX
  5
232
100
AcDbEntity
  8
0
370
              15
  6
Continuous
 62
               7
100
AcDbVertex
100
AcDb2dVertex
 10
-1.507477288111815
 20
-76.977477288111828
 30
0.0
  0
SEQEND
  5
233
100
AcDbEntity
  8
0
370
              15
  6
Continuous
 62
               7
  0
WIPEOUT
  5
234
100
AcDbEntity
  8
0
370
              15
  6
Continuous
 62
               7
 92
        0
100
AcDbWipeout
 90
        0
 10
0.492522711888185
 20
-86.607477288111824
 30
0.0
 11
24.199999999999989
 21
0.0
 31
0.0
 12
0.0
 22
24.199999999999989
 32
0.0
 13
1.0
 23
1.0
340
0
 70
               7
280
               1
281
              50
282
              50
283
               0
360
0
 71
               2
 91
        5
 14
-0.5
 24
-0.5
 14
-0.4173553719008264
 24
-0.5
 14
-0.4173553719008264
 24
0.5
 14
-0.5
 24
0.5
 14
-0.5
 24
-0.5
  0
POLYLINE
  5
235
100
AcDbEntity
  8
0
370
              15
  6
Continuous
 62
               7
100
AcDb2dPolyline
 66
               1
 10
0.0
 20
0.0
 30
0.0
 70
               1
 75
               5
  0
VERTEX
  5
236
100
AcDbEntity
  8
0
370
              15
  6
Continuous
 62
               7
100
AcDbVertex
100
AcDb2dVertex
 10
0.492522711888185
 20
-62.407477288111835
 30
0.0
  0
VERTEX
  5
237
100
AcDbEntity
  8
0
370
              15
  6
Continuous
 62
               7
100
AcDbVertex
100
AcDb2dVertex
 10
2.492522711888185
 20
-62.407477288111835
 30
0.0
  0
VERTEX
  5
238
100
AcDbEntity
  8
0
370
              15
  6
Continuous
 62
               7
100
AcDbVertex
100
AcDb2dVertex
 10
2.492522711888185
 20
-86.607477288111824
 30
0.0
  0
VERTEX
  5
239
100
AcDbEntity
  8
0
370
              15
  6
Continuous
 62
               7
100
AcDbVertex
100
AcDb2dVertex
 10
0.492522711888185
 20
-86.607477288111824
 30
0.0
  0
SEQEND
  5
23A
100
AcDbEntity
  8
0
370
              15
  6
Continuous
 62
               7
  0
WIPEOUT
  5
23B
100
AcDbEntity
  8
0
370
              15
  6
Continuous
 62
               7
 92
        0
100
AcDbWipeout
 90
        0
 10
-1.507477288111815
 20
-79.472477288111833
 30
0.0
 11
9.7400000000000091
 21
0.0
 31
0.0
 12
0.0
 22
9.7400000000000091
 32
0.0
 13
1.0
 23
1.0
340
0
 70
               7
280
               1
281
              50
282
              50
283
               0
360
0
 71
               2
 91
        5
 14
-0.5
 24
-0.5
 14
-0.2946611909650926
 24
-0.5
 14
-0.2946611909650926
 24
0.5
 14
-0.5
 24
0.5
 14
-0.5
 24
-0.5
  0
POLYLINE
  5
23C
100
AcDbEntity
  8
0
370
              15
  6
Continuous
 62
               7
100
AcDb2dPolyline
 66
               1
 10
0.0
 20
0.0
 30
0.0
 70
               1
 75
               5
  0
VERTEX
  5
23D
100
AcDbEntity
  8
0
370
              15
  6
Continuous
 62
               7
100
AcDbVertex
100
AcDb2dVertex
 10
-1.507477288111815
 20
-69.732477288111824
 30
0.0
  0
VERTEX
  5
23E
100
AcDbEntity
  8
0
370
              15
  6
Continuous
 62
               7
100
AcDbVertex
100
AcDb2dVertex
 10
0.492522711888185
 20
-69.732477288111824
 30
0.0
  0
VERTEX
  5
23F
100
AcDbEntity
  8
0
370
              15
  6
Continuous
 62
               7
100
AcDbVertex
100
AcDb2dVertex
 10
0.492522711888185
 20
-79.472477288111833
 30
0.0
  0
VERTEX
  5
240
100
AcDbEntity
  8
0
370
              15
  6
Continuous
 62
               7
100
AcDbVertex
100
AcDb2dVertex
 10
-1.507477288111815
 20
-79.472477288111833
 30
0.0
  0
SEQEND
  5
241
100
AcDbEntity
  8
0
370
              15
  6
Continuous
 62
               7
  0
WIPEOUT
  5
242
100
AcDbEntity
  8
0
370
              15
  6
Continuous
 62
               7
 92
        0
100
AcDbWipeout
 90
        0
 10
-1.507477288111815
 20
-76.977477288111828
 30
0.0
 11
4.8700000000000045
 21
0.0
 31
0.0
 12
0.0
 22
4.8700000000000045
 32
0.0
 13
1.0
 23
1.0
340
0
 70
               7
280
               1
281
              50
282
              50
283
               0
360
0
 71
               2
 91
        5
 14
-0.5
 24
-0.5
 14
-0.0893223819301852
 24
-0.5
 14
-0.0893223819301852
 24
0.5
 14
-0.5
 24
0.5
 14
-0.5
 24
-0.5
  0
POLYLINE
  5
243
100
AcDbEntity
  8
0
370
              15
  6
Continuous
 62
               7
100
AcDb2dPolyline
 66
               1
 10
0.0
 20
0.0
 30
0.0
 70
               1
 75
               5
  0
VERTEX
  5
244
100
AcDbEntity
  8
0
370
              15
  6
Continuous
 62
               7
100
AcDbVertex
100
AcDb2dVertex
 10
-1.507477288111815
 20
-72.107477288111824
 30
0.0
  0
VERTEX
  5
245
100
AcDbEntity
  8
0
370
              15
  6
Continuous
 62
               7
100
AcDbVertex
100
AcDb2dVertex
 10
0.492522711888185
 20
-72.107477288111824
 30
0.0
  0
VERTEX
  5
246
100
AcDbEntity
  8
0
370
              15
  6
Continuous
 62
               7
100
AcDbVertex
100
AcDb2dVertex
 10
0.492522711888185
 20
-76.977477288111828
 30
0.0
  0
VERTEX
  5
247
100
AcDbEntity
  8
0
370
              15
  6
Continuous
 62
               7
100
AcDbVertex
100
AcDb2dVertex
 10
-1.507477288111815
 20
-76.977477288111828
 30
0.0
  0
SEQEND
  5
248
100
AcDbEntity
  8
0
370
              15
  6
Continuous
 62
               7
  0
ENDBLK
  5
249
100
AcDbEntity
  8
0
100
AcDbBlockEnd
  0
BLOCK
  5
24A
100
AcDbEntity
  8
0
100
AcDbBlockBegin
  2
グループ-9
 70
               0
 10
0.0
 20
0.0
 30
0.0
  3
グループ-9
  1

  0
WIPEOUT
  5
24B
100
AcDbEntity
  8
0
370
              15
  6
Continuous
 62
               7
 92
        0
100
AcDbWipeout
 90
        0
 10
134.5
 20
-74.612323167500293
 30
0.0
 11
3.8238168552588263
 21
0.0
 31
0.0
 12
0.0
 22
3.8238168552588263
 32
0.0
 13
1.0
 23
1.0
340
0
 70
               7
280
               1
281
              50
282
              50
283
               0
360
0
 71
               2
 91
        5
 14
-0.5
 24
-0.2283950617283993
 14
0.5
 24
-0.2283950617283993
 14
0.5
 24
0.5
 14
-0.5
 24
0.5
 14
-0.5
 24
-0.2283950617283993
  0
POLYLINE
  5
24C
100
AcDbEntity
  8
0
370
              15
  6
Continuous
 62
               7
100
AcDb2dPolyline
 66
               1
 10
0.0
 20
0.0
 30
0.0
 70
               1
 75
               5
  0
VERTEX
  5
24D
100
AcDbEntity
  8
0
370
              15
  6
Continuous
 62
               7
100
AcDbVertex
100
AcDb2dVertex
 10
134.5
 20
-71.827073853175946
 30
0.0
  0
VERTEX
  5
24E
100
AcDbEntity
  8
0
370
              15
  6
Continuous
 62
               7
100
AcDbVertex
100
AcDb2dVertex
 10
138.32381685525883
 20
-71.827073853175946
 30
0.0
  0
VERTEX
  5
24F
100
AcDbEntity
  8
0
370
              15
  6
Continuous
 62
               7
100
AcDbVertex
100
AcDb2dVertex
 10
138.32381685525883
 20
-74.612323167500293
 30
0.0
  0
VERTEX
  5
250
100
AcDbEntity
  8
0
370
              15
  6
Continuous
 62
               7
100
AcDbVertex
100
AcDb2dVertex
 10
134.5
 20
-74.612323167500293
 30
0.0
  0
SEQEND
  5
251
100
AcDbEntity
  8
0
370
              15
  6
Continuous
 62
               7
  0
WIPEOUT
  5
252
100
AcDbEntity
  8
0
370
              15
  6
Continuous
 62
               7
 92
        0
100
AcDbWipeout
 90
        0
 10
134.5
 20
-79.002631408723389
 30
0.0
 11
4.3903082412230958
 21
0.0
 31
0.0
 12
0.0
 22
4.3903082412230958
 32
0.0
 13
1.0
 23
1.0
340
0
 70
               7
280
               1
281
              50
282
              50
283
               0
360
0
 71
               2
 91
        5
 14
-0.5
 24
-0.5
 14
0.3709677419354841
 24
-0.5
 14
0.3709677419354841
 24
0.5
 14
-0.5
 24
0.5
 14
-0.5
 24
-0.5
  0
POLYLINE
  5
253
100
AcDbEntity
  8
0
370
              15
  6
Continuous
 62
               7
100
AcDb2dPolyline
 66
               1
 10
0.0
 20
0.0
 30
0.0
 70
               1
 75
               5
  0
VERTEX
  5
254
100
AcDbEntity
  8
0
370
              15
  6
Continuous
 62
               7
100
AcDbVertex
100
AcDb2dVertex
 10
134.5
 20
-74.612323167500293
 30
0.0
  0
VERTEX
  5
255
100
AcDbEntity
  8
0
370
              15
  6
Continuous
 62
               7
100
AcDbVertex
100
AcDb2dVertex
 10
138.32381685525883
 20
-74.612323167500293
 30
0.0
  0
VERTEX
  5
256
100
AcDbEntity
  8
0
370
              15
  6
Continuous
 62
               7
100
AcDbVertex
100
AcDb2dVertex
 10
138.32381685525883
 20
-79.002631408723389
 30
0.0
  0
VERTEX
  5
257
100
AcDbEntity
  8
0
370
              15
  6
Continuous
 62
               7
100
AcDbVertex
100
AcDb2dVertex
 10
134.5
 20
-79.002631408723389
 30
0.0
  0
SEQEND
  5
258
100
AcDbEntity
  8
0
370
              15
  6
Continuous
 62
               7
  0
WIPEOUT
  5
259
100
AcDbEntity
  8
0
370
              15
  6
Continuous
 62
               7
 92
        0
100
AcDbWipeout
 90
        0
 10
134.5
 20
-81.787880723047735
 30
0.0
 11
3.8238168552588263
 21
0.0
 31
0.0
 12
0.0
 22
3.8238168552588263
 32
0.0
 13
1.0
 23
1.0
340
0
 70
               7
280
               1
281
              50
282
              50
283
               0
360
0
 71
               2
 91
        5
 14
-0.5
 24
-0.2283950617283993
 14
0.5
 24
-0.2283950617283993
 14
0.5
 24
0.5
 14
-0.5
 24
0.5
 14
-0.5
 24
-0.2283950617283993
  0
POLYLINE
  5
25A
100
AcDbEntity
  8
0
370
              15
  6
Continuous
 62
               7
100
AcDb2dPolyline
 66
               1
 10
0.0
 20
0.0
 30
0.0
 70
               1
 75
               5
  0
VERTEX
  5
25B
100
AcDbEntity
  8
0
370
              15
  6
Continuous
 62
               7
100
AcDbVertex
100
AcDb2dVertex
 10
134.5
 20
-79.002631408723389
 30
0.0
  0
VERTEX
  5
25C
100
AcDbEntity
  8
0
370
              15
  6
Continuous
 62
               7
100
AcDbVertex
100
AcDb2dVertex
 10
138.32381685525883
 20
-79.002631408723389
 30
0.0
  0
VERTEX
  5
25D
100
AcDbEntity
  8
0
370
              15
  6
Continuous
 62
               7
100
AcDbVertex
100
AcDb2dVertex
 10
138.32381685525883
 20
-81.787880723047735
 30
0.0
  0
VERTEX
  5
25E
100
AcDbEntity
  8
0
370
              15
  6
Continuous
 62
               7
100
AcDbVertex
100
AcDb2dVertex
 10
134.5
 20
-81.787880723047735
 30
0.0
  0
SEQEND
  5
25F
100
AcDbEntity
  8
0
370
              15
  6
Continuous
 62
               7
  0
WIPEOUT
  5
260
100
AcDbEntity
  8
0
370
              15
  6
Continuous
 62
               7
 92
        0
100
AcDbWipeout
 90
        0
 10
133.88630099853873
 20
-74.163850820278569
 30
0.0
 11
1.8883046198808984
 21
0.0
 31
0.0
 12
0.0
 22
1.8883046198808984
 32
0.0
 13
1.0
 23
1.0
340
0
 70
               7
280
               1
281
              50
282
              50
283
               0
360
0
 71
               2
 91
        5
 14
-0.5
 24
-0.5
 14
-0.1750000000000113
 24
-0.5
 14
-0.1750000000000113
 24
0.5
 14
-0.5
 24
0.5
 14
-0.5
 24
-0.5
  0
POLYLINE
  5
261
100
AcDbEntity
  8
0
370
              15
  6
Continuous
 62
               7
100
AcDb2dPolyline
 66
               1
 10
0.0
 20
0.0
 30
0.0
 70
               1
 75
               5
  0
VERTEX
  5
262
100
AcDbEntity
  8
0
370
              15
  6
Continuous
 62
               7
100
AcDbVertex
100
AcDb2dVertex
 10
133.88630099853873
 20
-72.27554620039767
 30
0.0
  0
VERTEX
  5
263
100
AcDbEntity
  8
0
370
              15
  6
Continuous
 62
               7
100
AcDbVertex
100
AcDb2dVertex
 10
134.5
 20
-72.27554620039767
 30
0.0
  0
VERTEX
  5
264
100
AcDbEntity
  8
0
370
              15
  6
Continuous
 62
               7
100
AcDbVertex
100
AcDb2dVertex
 10
134.5
 20
-74.163850820278569
 30
0.0
  0
VERTEX
  5
265
100
AcDbEntity
  8
0
370
              15
  6
Continuous
 62
               7
100
AcDbVertex
100
AcDb2dVertex
 10
133.88630099853873
 20
-74.163850820278569
 30
0.0
  0
SEQEND
  5
266
100
AcDbEntity
  8
0
370
              15
  6
Continuous
 62
               7
  0
WIPEOUT
  5
267
100
AcDbEntity
  8
0
370
              15
  6
Continuous
 62
               7
 92
        0
100
AcDbWipeout
 90
        0
 10
133.88630099853873
 20
-81.339408375826011
 30
0.0
 11
1.8883046198808984
 21
0.0
 31
0.0
 12
0.0
 22
1.8883046198808984
 32
0.0
 13
1.0
 23
1.0
340
0
 70
               7
280
               1
281
              50
282
              50
283
               0
360
0
 71
               2
 91
        5
 14
-0.5
 24
-0.5
 14
-0.1750000000000113
 24
-0.5
 14
-0.1750000000000113
 24
0.5
 14
-0.5
 24
0.5
 14
-0.5
 24
-0.5
  0
POLYLINE
  5
268
100
AcDbEntity
  8
0
370
              15
  6
Continuous
 62
               7
100
AcDb2dPolyline
 66
               1
 10
0.0
 20
0.0
 30
0.0
 70
               1
 75
               5
  0
VERTEX
  5
269
100
AcDbEntity
  8
0
370
              15
  6
Continuous
 62
               7
100
AcDbVertex
100
AcDb2dVertex
 10
133.88630099853873
 20
-79.451103755945113
 30
0.0
  0
VERTEX
  5
26A
100
AcDbEntity
  8
0
370
              15
  6
Continuous
 62
               7
100
AcDbVertex
100
AcDb2dVertex
 10
134.5
 20
-79.451103755945113
 30
0.0
  0
VERTEX
  5
26B
100
AcDbEntity
  8
0
370
              15
  6
Continuous
 62
               7
100
AcDbVertex
100
AcDb2dVertex
 10
134.5
 20
-81.339408375826011
 30
0.0
  0
VERTEX
  5
26C
100
AcDbEntity
  8
0
370
              15
  6
Continuous
 62
               7
100
AcDbVertex
100
AcDb2dVertex
 10
133.88630099853873
 20
-81.339408375826011
 30
0.0
  0
SEQEND
  5
26D
100
AcDbEntity
  8
0
370
              15
  6
Continuous
 62
               7
  0
WIPEOUT
  5
26E
100
AcDbEntity
  8
0
370
              15
  6
Continuous
 62
               7
 92
        0
100
AcDbWipeout
 90
        0
 10
138.32381685525883
 20
-73.691774665308344
 30
0.0
 11
0.9441523099404634
 21
0.0
 31
0.0
 12
0.0
 22
0.9441523099404634
 32
0.0
 13
1.0
 23
1.0
340
0
 70
               7
280
               1
281
              50
282
              50
283
               0
360
0
 71
               2
 91
        5
 14
-0.5
 24
-0.5
 14
0.1500000000000279
 24
-0.5
 14
0.1500000000000279
 24
0.5
 14
-0.5
 24
0.5
 14
-0.5
 24
-0.5
  0
POLYLINE
  5
26F
100
AcDbEntity
  8
0
370
              15
  6
Continuous
 62
               7
100
AcDb2dPolyline
 66
               1
 10
0.0
 20
0.0
 30
0.0
 70
               1
 75
               5
  0
VERTEX
  5
270
100
AcDbEntity
  8
0
370
              15
  6
Continuous
 62
               7
100
AcDbVertex
100
AcDb2dVertex
 10
138.32381685525883
 20
-72.747622355367881
 30
0.0
  0
VERTEX
  5
271
100
AcDbEntity
  8
0
370
              15
  6
Continuous
 62
               7
100
AcDbVertex
100
AcDb2dVertex
 10
138.93751585672015
 20
-72.747622355367881
 30
0.0
  0
VERTEX
  5
272
100
AcDbEntity
  8
0
370
              15
  6
Continuous
 62
               7
100
AcDbVertex
100
AcDb2dVertex
 10
138.93751585672015
 20
-73.691774665308344
 30
0.0
  0
VERTEX
  5
273
100
AcDbEntity
  8
0
370
              15
  6
Continuous
 62
               7
100
AcDbVertex
100
AcDb2dVertex
 10
138.32381685525883
 20
-73.691774665308344
 30
0.0
  0
SEQEND
  5
274
100
AcDbEntity
  8
0
370
              15
  6
Continuous
 62
               7
  0
WIPEOUT
  5
275
100
AcDbEntity
  8
0
370
              15
  6
Continuous
 62
               7
 92
        0
100
AcDbWipeout
 90
        0
 10
138.32381685525883
 20
-80.867332220855801
 30
0.0
 11
0.9441523099404634
 21
0.0
 31
0.0
 12
0.0
 22
0.9441523099404634
 32
0.0
 13
1.0
 23
1.0
340
0
 70
               7
280
               1
281
              50
282
              50
283
               0
360
0
 71
               2
 91
        5
 14
-0.5
 24
-0.5
 14
0.1500000000000279
 24
-0.5
 14
0.1500000000000279
 24
0.5
 14
-0.5
 24
0.5
 14
-0.5
 24
-0.5
  0
POLYLINE
  5
276
100
AcDbEntity
  8
0
370
              15
  6
Continuous
 62
               7
100
AcDb2dPolyline
 66
               1
 10
0.0
 20
0.0
 30
0.0
 70
               1
 75
               5
  0
VERTEX
  5
277
100
AcDbEntity
  8
0
370
              15
  6
Continuous
 62
               7
100
AcDbVertex
100
AcDb2dVertex
 10
138.32381685525883
 20
-79.923179910915337
 30
0.0
  0
VERTEX
  5
278
100
AcDbEntity
  8
0
370
              15
  6
Continuous
 62
               7
100
AcDbVertex
100
AcDb2dVertex
 10
138.93751585672015
 20
-79.923179910915337
 30
0.0
  0
VERTEX
  5
279
100
AcDbEntity
  8
0
370
              15
  6
Continuous
 62
               7
100
AcDbVertex
100
AcDb2dVertex
 10
138.93751585672015
 20
-80.867332220855801
 30
0.0
  0
VERTEX
  5
27A
100
AcDbEntity
  8
0
370
              15
  6
Continuous
 62
               7
100
AcDbVertex
100
AcDb2dVertex
 10
138.32381685525883
 20
-80.867332220855801
 30
0.0
  0
SEQEND
  5
27B
100
AcDbEntity
  8
0
370
              15
  6
Continuous
 62
               7
  0
WIPEOUT
  5
27C
100
AcDbEntity
  8
0
370
              15
  6
Continuous
 62
               7
 92
        0
100
AcDbWipeout
 90
        0
 10
138.32381685525883
 20
-76.359004940890117
 30
0.0
 11
4.2014777792350628
 21
0.0
 31
0.0
 12
0.0
 22
4.2014777792350628
 32
0.0
 13
1.0
 23
1.0
340
0
 70
               7
280
               1
281
              50
282
              50
283
               0
360
0
 71
               2
 91
        5
 14
-0.5
 24
0.0842696629213563
 14
0.5
 24
0.0842696629213563
 14
0.5
 24
0.5
 14
-0.5
 24
0.5
 14
-0.5
 24
0.0842696629213563
  0
POLYLINE
  5
27D
100
AcDbEntity
  8
0
370
              15
  6
Continuous
 62
               7
100
AcDb2dPolyline
 66
               1
 10
0.0
 20
0.0
 30
0.0
 70
               1
 75
               5
  0
VERTEX
  5
27E
100
AcDbEntity
  8
0
370
              15
  6
Continuous
 62
               7
100
AcDbVertex
100
AcDb2dVertex
 10
138.32381685525883
 20
-74.612323167500293
 30
0.0
  0
VERTEX
  5
27F
100
AcDbEntity
  8
0
370
              15
  6
Continuous
 62
               7
100
AcDbVertex
100
AcDb2dVertex
 10
142.52529463449389
 20
-74.612323167500293
 30
0.0
  0
VERTEX
  5
280
100
AcDbEntity
  8
0
370
              15
  6
Continuous
 62
               7
100
AcDbVertex
100
AcDb2dVertex
 10
142.52529463449389
 20
-76.359004940890117
 30
0.0
  0
VERTEX
  5
281
100
AcDbEntity
  8
0
370
              15
  6
Continuous
 62
               7
100
AcDbVertex
100
AcDb2dVertex
 10
138.32381685525883
 20
-76.359004940890117
 30
0.0
  0
SEQEND
  5
282
100
AcDbEntity
  8
0
370
              15
  6
Continuous
 62
               7
  0
WIPEOUT
  5
283
100
AcDbEntity
  8
0
370
              15
  6
Continuous
 62
               7
 92
        0
100
AcDbWipeout
 90
        0
 10
138.32381685525883
 20
-75.131606937967533
 30
0.0
 11
4.2014777792350628
 21
0.0
 31
0.0
 12
0.0
 22
4.2014777792350628
 32
0.0
 13
1.0
 23
1.0
340
0
 70
               7
280
               1
281
              50
282
              50
283
               0
360
0
 71
               2
 91
        5
 14
-0.5
 24
0.3764044943820261
 14
0.5
 24
0.3764044943820261
 14
0.5
 24
0.5
 14
-0.5
 24
0.5
 14
-0.5
 24
0.3764044943820261
  0
POLYLINE
  5
284
100
AcDbEntity
  8
0
370
              15
  6
Continuous
 62
               7
100
AcDb2dPolyline
 66
               1
 10
0.0
 20
0.0
 30
0.0
 70
               1
 75
               5
  0
VERTEX
  5
285
100
AcDbEntity
  8
0
370
              15
  6
Continuous
 62
               7
100
AcDbVertex
100
AcDb2dVertex
 10
138.32381685525883
 20
-74.612323167500293
 30
0.0
  0
VERTEX
  5
286
100
AcDbEntity
  8
0
370
              15
  6
Continuous
 62
               7
100
AcDbVertex
100
AcDb2dVertex
 10
142.52529463449389
 20
-74.612323167500293
 30
0.0
  0
VERTEX
  5
287
100
AcDbEntity
  8
0
370
              15
  6
Continuous
 62
               7
100
AcDbVertex
100
AcDb2dVertex
 10
142.52529463449389
 20
-75.131606937967533
 30
0.0
  0
VERTEX
  5
288
100
AcDbEntity
  8
0
370
              15
  6
Continuous
 62
               7
100
AcDbVertex
100
AcDb2dVertex
 10
138.32381685525883
 20
-75.131606937967533
 30
0.0
  0
SEQEND
  5
289
100
AcDbEntity
  8
0
370
              15
  6
Continuous
 62
               7
  0
WIPEOUT
  5
28A
100
AcDbEntity
  8
0
370
              15
  6
Continuous
 62
               7
 92
        0
100
AcDbWipeout
 90
        0
 10
138.32381685525883
 20
-79.002631408723389
 30
0.0
 11
4.2014777792350628
 21
0.0
 31
0.0
 12
0.0
 22
4.2014777792350628
 32
0.0
 13
1.0
 23
1.0
340
0
 70
               7
280
               1
281
              50
282
              50
283
               0
360
0
 71
               2
 91
        5
 14
-0.5
 24
0.0842696629213496
 14
0.5
 24
0.0842696629213496
 14
0.5
 24
0.5
 14
-0.5
 24
0.5
 14
-0.5
 24
0.0842696629213496
  0
POLYLINE
  5
28B
100
AcDbEntity
  8
0
370
              15
  6
Continuous
 62
               7
100
AcDb2dPolyline
 66
               1
 10
0.0
 20
0.0
 30
0.0
 70
               1
 75
               5
  0
VERTEX
  5
28C
100
AcDbEntity
  8
0
370
              15
  6
Continuous
 62
               7
100
AcDbVertex
100
AcDb2dVertex
 10
138.32381685525883
 20
-77.255949635333536
 30
0.0
  0
VERTEX
  5
28D
100
AcDbEntity
  8
0
370
              15
  6
Continuous
 62
               7
100
AcDbVertex
100
AcDb2dVertex
 10
142.52529463449389
 20
-77.255949635333536
 30
0.0
  0
VERTEX
  5
28E
100
AcDbEntity
  8
0
370
              15
  6
Continuous
 62
               7
100
AcDbVertex
100
AcDb2dVertex
 10
142.52529463449389
 20
-79.002631408723389
 30
0.0
  0
VERTEX
  5
28F
100
AcDbEntity
  8
0
370
              15
  6
Continuous
 62
               7
100
AcDbVertex
100
AcDb2dVertex
 10
138.32381685525883
 20
-79.002631408723389
 30
0.0
  0
SEQEND
  5
290
100
AcDbEntity
  8
0
370
              15
  6
Continuous
 62
               7
  0
WIPEOUT
  5
291
100
AcDbEntity
  8
0
370
              15
  6
Continuous
 62
               7
 92
        0
100
AcDbWipeout
 90
        0
 10
138.32381685525883
 20
-79.002631408723389
 30
0.0
 11
4.2014777792350628
 21
0.0
 31
0.0
 12
0.0
 22
4.2014777792350628
 32
0.0
 13
1.0
 23
1.0
340
0
 70
               7
280
               1
281
              50
282
              50
283
               0
360
0
 71
               2
 91
        5
 14
-0.5
 24
0.3764044943820261
 14
0.5
 24
0.3764044943820261
 14
0.5
 24
0.5
 14
-0.5
 24
0.5
 14
-0.5
 24
0.3764044943820261
  0
POLYLINE
  5
292
100
AcDbEntity
  8
0
370
              15
  6
Continuous
 62
               7
100
AcDb2dPolyline
 66
               1
 10
0.0
 20
0.0
 30
0.0
 70
               1
 75
               5
  0
VERTEX
  5
293
100
AcDbEntity
  8
0
370
              15
  6
Continuous
 62
               7
100
AcDbVertex
100
AcDb2dVertex
 10
138.32381685525883
 20
-78.483347638256149
 30
0.0
  0
VERTEX
  5
294
100
AcDbEntity
  8
0
370
              15
  6
Continuous
 62
               7
100
AcDbVertex
100
AcDb2dVertex
 10
142.52529463449389
 20
-78.483347638256149
 30
0.0
  0
VERTEX
  5
295
100
AcDbEntity
  8
0
370
              15
  6
Continuous
 62
               7
100
AcDbVertex
100
AcDb2dVertex
 10
142.52529463449389
 20
-79.002631408723389
 30
0.0
  0
VERTEX
  5
296
100
AcDbEntity
  8
0
370
              15
  6
Continuous
 62
               7
100
AcDbVertex
100
AcDb2dVertex
 10
138.32381685525883
 20
-79.002631408723389
 30
0.0
  0
SEQEND
  5
297
100
AcDbEntity
  8
0
370
              15
  6
Continuous
 62
               7
  0
ENDBLK
  5
298
100
AcDbEntity
  8
0
100
AcDbBlockEnd
  0
BLOCK
  5
299
100
AcDbEntity
  8
0
100
AcDbBlockBegin
  2
グループ-10
 70
               0
 10
0.0
 20
0.0
 30
0.0
  3
グループ-10
  1

  0
WIPEOUT
  5
29A
100
AcDbEntity
  8
0
370
              15
  6
Continuous
 62
               7
 92
        0
100
AcDbWipeout
 90
        0
 10
152.5
 20
-85.807477288111841
 30
0.0
 11
10.0
 21
0.0
 31
0.0
 12
0.0
 22
10.0
 32
0.0
 13
1.0
 23
1.0
340
0
 70
               7
280
               1
281
              50
282
              50
283
               0
360
0
 71
               2
 91
       19
 14
0.0
 24
0.5
 14
-0.0975451610080654
 24
0.4903926402016154
 14
-0.1913417161825436
 24
0.4619397662556438
 14
-0.2777851165098014
 24
0.4157348061512721
 14
-0.3535533905932738
 24
0.3535533905932738
 14
-0.4157348061512721
 24
0.2777851165098014
 14
-0.4619397662556423
 24
0.191341716182545
 14
-0.490392640201614
 24
0.097545161008064
 14
-0.5
 24
0.0
 14
-0.490392640201614
 24
-0.097545161008064
 14
-0.4619397662556423
 24
-0.191341716182545
 14
-0.4157348061512721
 24
-0.2777851165098013
 14
-0.3535533905932738
 24
-0.3535533905932737
 14
-0.2777851165098014
 24
-0.4157348061512721
 14
-0.1913417161825436
 24
-0.4619397662556437
 14
-0.0975451610080654
 24
-0.4903926402016154
 14
0.0
 24
-0.5
 14
0.0
 24
0.0
 14
0.0
 24
0.5
  0
ARC
  5
29B
100
AcDbEntity
  8
0
370
              15
  6
Continuous
 62
               7
100
AcDbCircle
 10
157.5
 20
-80.807477288111841
 30
0.0
 40
5.0
100
AcDbArc
 50
90.0
 51
270.0
  0
LINE
  5
29C
100
AcDbEntity
  8
0
370
              15
  6
Continuous
 62
               7
100
AcDbLine
 10
157.5
 20
-75.807477288111841
 30
0.0
 11
162.5
 21
-75.807477288111841
 31
0.0
  0
LINE
  5
29D
100
AcDbEntity
  8
0
370
              15
  6
Continuous
 62
               7
100
AcDbLine
 10
162.5
 20
-75.807477288111841
 30
0.0
 11
162.5
 21
-85.807477288111841
 31
0.0
  0
LINE
  5
29E
100
AcDbEntity
  8
0
370
              15
  6
Continuous
 62
               7
100
AcDbLine
 10
162.5
 20
-85.807477288111841
 30
0.0
 11
157.5
 21
-85.807477288111841
 31
0.0
  0
WIPEOUT
  5
29F
100
AcDbEntity
  8
0
370
              15
  6
Continuous
 62
               7
 92
        0
100
AcDbWipeout
 90
        0
 10
162.5
 20
-78.807477288111841
 30
0.0
 11
5.0
 21
0.0
 31
0.0
 12
0.0
 22
5.0
 32
0.0
 13
1.0
 23
1.0
340
0
 70
               7
280
               1
281
              50
282
              50
283
               0
360
0
 71
               2
 91
        5
 14
-0.5
 24
0.3
 14
0.5
 24
0.3
 14
0.5
 24
0.5
 14
-0.5
 24
0.5
 14
-0.5
 24
0.3
  0
POLYLINE
  5
2A0
100
AcDbEntity
  8
0
370
              15
  6
Continuous
 62
               7
100
AcDb2dPolyline
 66
               1
 10
0.0
 20
0.0
 30
0.0
 70
               1
 75
               5
  0
VERTEX
  5
2A1
100
AcDbEntity
  8
0
370
              15
  6
Continuous
 62
               7
100
AcDbVertex
100
AcDb2dVertex
 10
162.5
 20
-77.807477288111841
 30
0.0
  0
VERTEX
  5
2A2
100
AcDbEntity
  8
0
370
              15
  6
Continuous
 62
               7
100
AcDbVertex
100
AcDb2dVertex
 10
167.5
 20
-77.807477288111841
 30
0.0
  0
VERTEX
  5
2A3
100
AcDbEntity
  8
0
370
              15
  6
Continuous
 62
               7
100
AcDbVertex
100
AcDb2dVertex
 10
167.5
 20
-78.807477288111841
 30
0.0
  0
VERTEX
  5
2A4
100
AcDbEntity
  8
0
370
              15
  6
Continuous
 62
               7
100
AcDbVertex
100
AcDb2dVertex
 10
162.5
 20
-78.807477288111841
 30
0.0
  0
SEQEND
  5
2A5
100
AcDbEntity
  8
0
370
              15
  6
Continuous
 62
               7
  0
WIPEOUT
  5
2A6
100
AcDbEntity
  8
0
370
              15
  6
Continuous
 62
               7
 92
        0
100
AcDbWipeout
 90
        0
 10
162.5
 20
-83.807477288111841
 30
0.0
 11
5.0
 21
0.0
 31
0.0
 12
0.0
 22
5.0
 32
0.0
 13
1.0
 23
1.0
340
0
 70
               7
280
               1
281
              50
282
              50
283
               0
360
0
 71
               2
 91
        5
 14
-0.5
 24
0.3
 14
0.5
 24
0.3
 14
0.5
 24
0.5
 14
-0.5
 24
0.5
 14
-0.5
 24
0.3
  0
POLYLINE
  5
2A7
100
AcDbEntity
  8
0
370
              15
  6
Continuous
 62
               7
100
AcDb2dPolyline
 66
               1
 10
0.0
 20
0.0
 30
0.0
 70
               1
 75
               5
  0
VERTEX
  5
2A8
100
AcDbEntity
  8
0
370
              15
  6
Continuous
 62
               7
100
AcDbVertex
100
AcDb2dVertex
 10
162.5
 20
-82.807477288111841
 30
0.0
  0
VERTEX
  5
2A9
100
AcDbEntity
  8
0
370
              15
  6
Continuous
 62
               7
100
AcDbVertex
100
AcDb2dVertex
 10
167.5
 20
-82.807477288111841
 30
0.0
  0
VERTEX
  5
2AA
100
AcDbEntity
  8
0
370
              15
  6
Continuous
 62
               7
100
AcDbVertex
100
AcDb2dVertex
 10
167.5
 20
-83.807477288111841
 30
0.0
  0
VERTEX
  5
2AB
100
AcDbEntity
  8
0
370
              15
  6
Continuous
 62
               7
100
AcDbVertex
100
AcDb2dVertex
 10
162.5
 20
-83.807477288111841
 30
0.0
  0
SEQEND
  5
2AC
100
AcDbEntity
  8
0
370
              15
  6
Continuous
 62
               7
  0
ENDBLK
  5
2AD
100
AcDbEntity
  8
0
100
AcDbBlockEnd
  0
BLOCK
  5
2AE
100
AcDbEntity
  8
0
100
AcDbBlockBegin
  2
グループ-11
 70
               0
 10
0.0
 20
0.0
 30
0.0
  3
グループ-11
  1

  0
WIPEOUT
  5
2AF
100
AcDbEntity
  8
0
370
              15
  6
Continuous
 62
               7
 92
        0
100
AcDbWipeout
 90
        0
 10
57.392522711888191
 20
-80.457477288111832
 30
0.0
 11
28.5
 21
0.0
 31
0.0
 12
0.0
 22
28.5
 32
0.0
 13
1.0
 23
1.0
340
0
 70
               7
280
               1
281
              50
282
              50
283
               0
360
0
 71
               2
 91
        5
 14
-0.5
 24
0.3596491228070176
 14
0.5
 24
0.3596491228070176
 14
0.5
 24
0.5
 14
-0.5
 24
0.5
 14
-0.5
 24
0.3596491228070176
  0
POLYLINE
  5
2B0
100
AcDbEntity
  8
0
370
              15
  6
Continuous
 62
               7
100
AcDb2dPolyline
 66
               1
 10
0.0
 20
0.0
 30
0.0
 70
               1
 75
               5
  0
VERTEX
  5
2B1
100
AcDbEntity
  8
0
370
              15
  6
Continuous
 62
               7
100
AcDbVertex
100
AcDb2dVertex
 10
57.392522711888191
 20
-76.457477288111832
 30
0.0
  0
VERTEX
  5
2B2
100
AcDbEntity
  8
0
370
              15
  6
Continuous
 62
               7
100
AcDbVertex
100
AcDb2dVertex
 10
85.892522711888191
 20
-76.457477288111832
 30
0.0
  0
VERTEX
  5
2B3
100
AcDbEntity
  8
0
370
              15
  6
Continuous
 62
               7
100
AcDbVertex
100
AcDb2dVertex
 10
85.892522711888191
 20
-80.457477288111832
 30
0.0
  0
VERTEX
  5
2B4
100
AcDbEntity
  8
0
370
              15
  6
Continuous
 62
               7
100
AcDbVertex
100
AcDb2dVertex
 10
57.392522711888191
 20
-80.457477288111832
 30
0.0
  0
SEQEND
  5
2B5
100
AcDbEntity
  8
0
370
              15
  6
Continuous
 62
               7
  0
WIPEOUT
  5
2B6
100
AcDbEntity
  8
0
370
              15
  6
Continuous
 62
               7
 92
        0
100
AcDbWipeout
 90
        0
 10
57.392522711888191
 20
-80.457477288111832
 30
0.0
 11
28.5
 21
0.0
 31
0.0
 12
0.0
 22
28.5
 32
0.0
 13
1.0
 23
1.0
340
0
 70
               7
280
               1
281
              50
282
              50
283
               0
360
0
 71
               2
 91
        5
 14
-0.5
 24
0.4298245614035088
 14
0.5
 24
0.4298245614035088
 14
0.5
 24
0.5
 14
-0.5
 24
0.5
 14
-0.5
 24
0.4298245614035088
  0
POLYLINE
  5
2B7
100
AcDbEntity
  8
0
370
              15
  6
Continuous
 62
               7
100
AcDb2dPolyline
 66
               1
 10
0.0
 20
0.0
 30
0.0
 70
               1
 75
               5
  0
VERTEX
  5
2B8
100
AcDbEntity
  8
0
370
              15
  6
Continuous
 62
               7
100
AcDbVertex
100
AcDb2dVertex
 10
57.392522711888191
 20
-78.457477288111832
 30
0.0
  0
VERTEX
  5
2B9
100
AcDbEntity
  8
0
370
              15
  6
Continuous
 62
               7
100
AcDbVertex
100
AcDb2dVertex
 10
85.892522711888191
 20
-78.457477288111832
 30
0.0
  0
VERTEX
  5
2BA
100
AcDbEntity
  8
0
370
              15
  6
Continuous
 62
               7
100
AcDbVertex
100
AcDb2dVertex
 10
85.892522711888191
 20
-80.457477288111832
 30
0.0
  0
VERTEX
  5
2BB
100
AcDbEntity
  8
0
370
              15
  6
Continuous
 62
               7
100
AcDbVertex
100
AcDb2dVertex
 10
57.392522711888191
 20
-80.457477288111832
 30
0.0
  0
SEQEND
  5
2BC
100
AcDbEntity
  8
0
370
              15
  6
Continuous
 62
               7
  0
WIPEOUT
  5
2BD
100
AcDbEntity
  8
0
370
              15
  6
Continuous
 62
               7
 92
        0
100
AcDbWipeout
 90
        0
 10
86.592522711888179
 20
-62.807477288111826
 30
0.0
 11
6.0
 21
0.0
 31
0.0
 12
0.0
 22
6.0
 32
0.0
 13
1.0
 23
1.0
340
0
 70
               7
280
               1
281
              50
282
              50
283
               0
360
0
 71
               2
 91
        5
 14
-0.5
 24
-0.5
 14
0.1666666666666666
 24
-0.5
 14
0.1666666666666666
 24
0.5
 14
-0.5
 24
0.5
 14
-0.5
 24
-0.5
  0
POLYLINE
  5
2BE
100
AcDbEntity
  8
0
370
              15
  6
Continuous
 62
               7
100
AcDb2dPolyline
 66
               1
 10
0.0
 20
0.0
 30
0.0
 70
               1
 75
               5
  0
VERTEX
  5
2BF
100
AcDbEntity
  8
0
370
              15
  6
Continuous
 62
               7
100
AcDbVertex
100
AcDb2dVertex
 10
86.592522711888179
 20
-56.807477288111826
 30
0.0
  0
VERTEX
  5
2C0
100
AcDbEntity
  8
0
370
              15
  6
Continuous
 62
               7
100
AcDbVertex
100
AcDb2dVertex
 10
90.592522711888179
 20
-56.807477288111826
 30
0.0
  0
VERTEX
  5
2C1
100
AcDbEntity
  8
0
370
              15
  6
Continuous
 62
               7
100
AcDbVertex
100
AcDb2dVertex
 10
90.592522711888179
 20
-62.807477288111826
 30
0.0
  0
VERTEX
  5
2C2
100
AcDbEntity
  8
0
370
              15
  6
Continuous
 62
               7
100
AcDbVertex
100
AcDb2dVertex
 10
86.592522711888179
 20
-62.807477288111826
 30
0.0
  0
SEQEND
  5
2C3
100
AcDbEntity
  8
0
370
              15
  6
Continuous
 62
               7
  0
WIPEOUT
  5
2C4
100
AcDbEntity
  8
0
370
              15
  6
Continuous
 62
               7
 92
        0
100
AcDbWipeout
 90
        0
 10
88.592522711888179
 20
-62.807477288111826
 30
0.0
 11
6.0
 21
0.0
 31
0.0
 12
0.0
 22
6.0
 32
0.0
 13
1.0
 23
1.0
340
0
 70
               7
280
               1
281
              50
282
              50
283
               0
360
0
 71
               2
 91
        5
 14
-0.5
 24
-0.5
 14
-0.1666666666666667
 24
-0.5
 14
-0.1666666666666667
 24
0.5
 14
-0.5
 24
0.5
 14
-0.5
 24
-0.5
  0
POLYLINE
  5
2C5
100
AcDbEntity
  8
0
370
              15
  6
Continuous
 62
               7
100
AcDb2dPolyline
 66
               1
 10
0.0
 20
0.0
 30
0.0
 70
               1
 75
               5
  0
VERTEX
  5
2C6
100
AcDbEntity
  8
0
370
              15
  6
Continuous
 62
               7
100
AcDbVertex
100
AcDb2dVertex
 10
88.592522711888179
 20
-56.807477288111826
 30
0.0
  0
VERTEX
  5
2C7
100
AcDbEntity
  8
0
370
              15
  6
Continuous
 62
               7
100
AcDbVertex
100
AcDb2dVertex
 10
90.592522711888179
 20
-56.807477288111826
 30
0.0
  0
VERTEX
  5
2C8
100
AcDbEntity
  8
0
370
              15
  6
Continuous
 62
               7
100
AcDbVertex
100
AcDb2dVertex
 10
90.592522711888179
 20
-62.807477288111826
 30
0.0
  0
VERTEX
  5
2C9
100
AcDbEntity
  8
0
370
              15
  6
Continuous
 62
               7
100
AcDbVertex
100
AcDb2dVertex
 10
88.592522711888179
 20
-62.807477288111826
 30
0.0
  0
SEQEND
  5
2CA
100
AcDbEntity
  8
0
370
              15
  6
Continuous
 62
               7
  0
WIPEOUT
  5
2CB
100
AcDbEntity
  8
0
370
              15
  6
Continuous
 62
               7
 92
        0
100
AcDbWipeout
 90
        0
 10
80.799999999999997
 20
-76.457477288111832
 30
0.0
 11
19.650000000000006
 21
0.0
 31
0.0
 12
0.0
 22
19.650000000000006
 32
0.0
 13
1.0
 23
1.0
340
0
 70
               7
280
               1
281
              50
282
              50
283
               0
360
0
 71
               2
 91
        5
 14
-0.2052151291659959
 24
-0.5
 14
-0.5
 24
0.5
 14
-0.3982188295165395
 24
0.5
 14
-0.1034339586825354
 24
-0.5
 14
-0.2052151291659959
 24
-0.5
  0
POLYLINE
  5
2CC
100
AcDbEntity
  8
0
370
              15
  6
Continuous
 62
               7
100
AcDb2dPolyline
 66
               1
 10
0.0
 20
0.0
 30
0.0
 70
               1
 75
               5
  0
VERTEX
  5
2CD
100
AcDbEntity
  8
0
370
              15
  6
Continuous
 62
               7
100
AcDbVertex
100
AcDb2dVertex
 10
86.592522711888179
 20
-56.807477288111826
 30
0.0
  0
VERTEX
  5
2CE
100
AcDbEntity
  8
0
370
              15
  6
Continuous
 62
               7
100
AcDbVertex
100
AcDb2dVertex
 10
80.799999999999997
 20
-76.457477288111832
 30
0.0
  0
VERTEX
  5
2CF
100
AcDbEntity
  8
0
370
              15
  6
Continuous
 62
               7
100
AcDbVertex
100
AcDb2dVertex
 10
82.799999999999997
 20
-76.457477288111832
 30
0.0
  0
VERTEX
  5
2D0
100
AcDbEntity
  8
0
370
              15
  6
Continuous
 62
               7
100
AcDbVertex
100
AcDb2dVertex
 10
88.592522711888179
 20
-56.807477288111826
 30
0.0
  0
SEQEND
  5
2D1
100
AcDbEntity
  8
0
370
              15
  6
Continuous
 62
               7
  0
WIPEOUT
  5
2D2
100
AcDbEntity
  8
0
370
              15
  6
Continuous
 62
               7
 92
        0
100
AcDbWipeout
 90
        0
 10
82.799999999999997
 20
-76.457477288111832
 30
0.0
 11
19.650000000000006
 21
0.0
 31
0.0
 12
0.0
 22
19.650000000000006
 32
0.0
 13
1.0
 23
1.0
340
0
 70
               7
280
               1
281
              50
282
              50
283
               0
360
0
 71
               2
 91
        5
 14
-0.1034339586825354
 24
-0.5
 14
-0.2052151291659959
 24
-0.5
 14
-0.5
 24
0.5
 14
-0.3982188295165395
 24
0.5
 14
-0.1034339586825354
 24
-0.5
  0
POLYLINE
  5
2D3
100
AcDbEntity
  8
0
370
              15
  6
Continuous
 62
               7
100
AcDb2dPolyline
 66
               1
 10
0.0
 20
0.0
 30
0.0
 70
               1
 75
               5
  0
VERTEX
  5
2D4
100
AcDbEntity
  8
0
370
              15
  6
Continuous
 62
               7
100
AcDbVertex
100
AcDb2dVertex
 10
90.592522711888179
 20
-56.807477288111826
 30
0.0
  0
VERTEX
  5
2D5
100
AcDbEntity
  8
0
370
              15
  6
Continuous
 62
               7
100
AcDbVertex
100
AcDb2dVertex
 10
88.592522711888179
 20
-56.807477288111826
 30
0.0
  0
VERTEX
  5
2D6
100
AcDbEntity
  8
0
370
              15
  6
Continuous
 62
               7
100
AcDbVertex
100
AcDb2dVertex
 10
82.799999999999997
 20
-76.457477288111832
 30
0.0
  0
VERTEX
  5
2D7
100
AcDbEntity
  8
0
370
              15
  6
Continuous
 62
               7
100
AcDbVertex
100
AcDb2dVertex
 10
84.799999999999997
 20
-76.457477288111832
 30
0.0
  0
SEQEND
  5
2D8
100
AcDbEntity
  8
0
370
              15
  6
Continuous
 62
               7
  0
WIPEOUT
  5
2D9
100
AcDbEntity
  8
0
370
              15
  6
Continuous
 62
               7
 92
        0
100
AcDbWipeout
 90
        0
 10
95.892522711888162
 20
-78.807477288111841
 30
0.0
 11
38.607477288111838
 21
0.0
 31
0.0
 12
0.0
 22
38.607477288111838
 32
0.0
 13
1.0
 23
1.0
340
0
 70
               7
280
               1
281
              50
282
              50
283
               0
360
0
 71
               2
 91
        5
 14
-0.5
 24
0.396393126902604
 14
0.5
 24
0.396393126902604
 14
0.5
 24
0.5
 14
-0.5
 24
0.5
 14
-0.5
 24
0.396393126902604
  0
POLYLINE
  5
2DA
100
AcDbEntity
  8
0
370
              15
  6
Continuous
 62
               7
100
AcDb2dPolyline
 66
               1
 10
0.0
 20
0.0
 30
0.0
 70
               1
 75
               5
  0
VERTEX
  5
2DB
100
AcDbEntity
  8
0
370
              15
  6
Continuous
 62
               7
100
AcDbVertex
100
AcDb2dVertex
 10
95.892522711888162
 20
-74.807477288111841
 30
0.0
  0
VERTEX
  5
2DC
100
AcDbEntity
  8
0
370
              15
  6
Continuous
 62
               7
100
AcDbVertex
100
AcDb2dVertex
 10
134.5
 20
-74.807477288111841
 30
0.0
  0
VERTEX
  5
2DD
100
AcDbEntity
  8
0
370
              15
  6
Continuous
 62
               7
100
AcDbVertex
100
AcDb2dVertex
 10
134.5
 20
-78.807477288111841
 30
0.0
  0
VERTEX
  5
2DE
100
AcDbEntity
  8
0
370
              15
  6
Continuous
 62
               7
100
AcDbVertex
100
AcDb2dVertex
 10
95.892522711888162
 20
-78.807477288111841
 30
0.0
  0
SEQEND
  5
2DF
100
AcDbEntity
  8
0
370
              15
  6
Continuous
 62
               7
  0
WIPEOUT
  5
2E0
100
AcDbEntity
  8
0
370
              15
  6
Continuous
 62
               7
 92
        0
100
AcDbWipeout
 90
        0
 10
95.892522711888162
 20
-78.807477288111841
 30
0.0
 11
38.607477288111838
 21
0.0
 31
0.0
 12
0.0
 22
38.607477288111838
 32
0.0
 13
1.0
 23
1.0
340
0
 70
               7
280
               1
281
              50
282
              50
283
               0
360
0
 71
               2
 91
        5
 14
-0.5
 24
0.448196563451302
 14
0.5
 24
0.448196563451302
 14
0.5
 24
0.5
 14
-0.5
 24
0.5
 14
-0.5
 24
0.448196563451302
  0
POLYLINE
  5
2E1
100
AcDbEntity
  8
0
370
              15
  6
Continuous
 62
               7
100
AcDb2dPolyline
 66
               1
 10
0.0
 20
0.0
 30
0.0
 70
               1
 75
               5
  0
VERTEX
  5
2E2
100
AcDbEntity
  8
0
370
              15
  6
Continuous
 62
               7
100
AcDbVertex
100
AcDb2dVertex
 10
95.892522711888162
 20
-76.807477288111841
 30
0.0
  0
VERTEX
  5
2E3
100
AcDbEntity
  8
0
370
              15
  6
Continuous
 62
               7
100
AcDbVertex
100
AcDb2dVertex
 10
134.5
 20
-76.807477288111841
 30
0.0
  0
VERTEX
  5
2E4
100
AcDbEntity
  8
0
370
              15
  6
Continuous
 62
               7
100
AcDbVertex
100
AcDb2dVertex
 10
134.5
 20
-78.807477288111841
 30
0.0
  0
VERTEX
  5
2E5
100
AcDbEntity
  8
0
370
              15
  6
Continuous
 62
               7
100
AcDbVertex
100
AcDb2dVertex
 10
95.892522711888162
 20
-78.807477288111841
 30
0.0
  0
SEQEND
  5
2E6
100
AcDbEntity
  8
0
370
              15
  6
Continuous
 62
               7
  0
WIPEOUT
  5
2E7
100
AcDbEntity
  8
0
370
              15
  6
Continuous
 62
               7
 92
        0
100
AcDbWipeout
 90
        0
 10
95.892522711888162
 20
-82.807477288111841
 30
0.0
 11
58.607477288111838
 21
0.0
 31
0.0
 12
0.0
 22
58.607477288111838
 32
0.0
 13
1.0
 23
1.0
340
0
 70
               7
280
               1
281
              50
282
              50
283
               0
360
0
 71
               2
 91
        5
 14
-0.5
 24
0.4317493230371242
 14
0.5
 24
0.4317493230371242
 14
0.5
 24
0.5
 14
-0.5
 24
0.5
 14
-0.5
 24
0.4317493230371242
  0
POLYLINE
  5
2E8
100
AcDbEntity
  8
0
370
              15
  6
Continuous
 62
               7
100
AcDb2dPolyline
 66
               1
 10
0.0
 20
0.0
 30
0.0
 70
               1
 75
               5
  0
VERTEX
  5
2E9
100
AcDbEntity
  8
0
370
              15
  6
Continuous
 62
               7
100
AcDbVertex
100
AcDb2dVertex
 10
95.892522711888162
 20
-78.807477288111841
 30
0.0
  0
VERTEX
  5
2EA
100
AcDbEntity
  8
0
370
              15
  6
Continuous
 62
               7
100
AcDbVertex
100
AcDb2dVertex
 10
154.5
 20
-78.807477288111841
 30
0.0
  0
VERTEX
  5
2EB
100
AcDbEntity
  8
0
370
              15
  6
Continuous
 62
               7
100
AcDbVertex
100
AcDb2dVertex
 10
154.5
 20
-82.807477288111841
 30
0.0
  0
VERTEX
  5
2EC
100
AcDbEntity
  8
0
370
              15
  6
Continuous
 62
               7
100
AcDbVertex
100
AcDb2dVertex
 10
95.892522711888162
 20
-82.807477288111841
 30
0.0
  0
SEQEND
  5
2ED
100
AcDbEntity
  8
0
370
              15
  6
Continuous
 62
               7
  0
WIPEOUT
  5
2EE
100
AcDbEntity
  8
0
370
              15
  6
Continuous
 62
               7
 92
        0
100
AcDbWipeout
 90
        0
 10
95.892522711888162
 20
-82.807477288111841
 30
0.0
 11
58.607477288111838
 21
0.0
 31
0.0
 12
0.0
 22
58.607477288111838
 32
0.0
 13
1.0
 23
1.0
340
0
 70
               7
280
               1
281
              50
282
              50
283
               0
360
0
 71
               2
 91
        5
 14
-0.5
 24
0.4658746615185621
 14
0.5
 24
0.4658746615185621
 14
0.5
 24
0.5
 14
-0.5
 24
0.5
 14
-0.5
 24
0.4658746615185621
  0
POLYLINE
  5
2EF
100
AcDbEntity
  8
0
370
              15
  6
Continuous
 62
               7
100
AcDb2dPolyline
 66
               1
 10
0.0
 20
0.0
 30
0.0
 70
               1
 75
               5
  0
VERTEX
  5
2F0
100
AcDbEntity
  8
0
370
              15
  6
Continuous
 62
               7
100
AcDbVertex
100
AcDb2dVertex
 10
95.892522711888162
 20
-80.807477288111841
 30
0.0
  0
VERTEX
  5
2F1
100
AcDbEntity
  8
0
370
              15
  6
Continuous
 62
               7
100
AcDbVertex
100
AcDb2dVertex
 10
154.5
 20
-80.807477288111841
 30
0.0
  0
VERTEX
  5
2F2
100
AcDbEntity
  8
0
370
              15
  6
Continuous
 62
               7
100
AcDbVertex
100
AcDb2dVertex
 10
154.5
 20
-82.807477288111841
 30
0.0
  0
VERTEX
  5
2F3
100
AcDbEntity
  8
0
370
              15
  6
Continuous
 62
               7
100
AcDbVertex
100
AcDb2dVertex
 10
95.892522711888162
 20
-82.807477288111841
 30
0.0
  0
SEQEND
  5
2F4
100
AcDbEntity
  8
0
370
              15
  6
Continuous
 62
               7
  0
INSERT
  5
2F5
100
AcDbEntity
  8
0
 62
               7
100
AcDbBlockReference
  2
グループ-9
 10
0.0
 20
0.0
 30
0.0
  0
INSERT
  5
2F6
100
AcDbEntity
  8
0
 62
               7
100
AcDbBlockReference
  2
グループ-10
 10
0.0
 20
0.0
 30
0.0
  0
ENDBLK
  5
2F7
100
AcDbEntity
  8
0
100
AcDbBlockEnd
  0
BLOCK
  5
2F8
100
AcDbEntity
  8
寸法
100
AcDbBlockBegin
  2
*D14
 70
               1
 10
0.0
 20
0.0
 30
0.0
  3
*D14
  1

  0
LINE
  5
2F9
100
AcDbEntity
  8
寸法
370
              -2
  6
Continuous
 62
               0
100
AcDbLine
 10
-121.0
 20
-71.587500000000006
 30
0.0
 11
-121.0
 21
-93.175000000000011
 31
0.0
  0
LINE
  5
2FA
100
AcDbEntity
  8
寸法
370
              -2
  6
Continuous
 62
               0
100
AcDbLine
 10
-9.9999999999999858
 20
-71.587500000000006
 30
0.0
 11
-9.9999999999999858
 21
-93.175000000000011
 31
0.0
  0
LINE
  5
2FB
100
AcDbEntity
  8
寸法
370
              -2
  6
Continuous
 62
               0
100
AcDbLine
 10
-122.58750000000001
 20
-90.000000000000014
 30
0.0
 11
-121.0
 21
-90.000000000000014
 31
0.0
  0
LINE
  5
2FC
100
AcDbEntity
  8
寸法
370
              -2
  6
Continuous
 62
               0
100
AcDbLine
 10
-9.9999999999999858
 20
-90.000000000000014
 30
0.0
 11
-8.4124999999999872
 21
-90.000000000000014
 31
0.0
  0
LINE
  5
2FD
100
AcDbEntity
  8
寸法
370
              -2
  6
Continuous
 62
               0
100
AcDbLine
 10
-121.0
 20
-90.000000000000014
 30
0.0
 11
-9.9999999999999858
 21
-90.000000000000014
 31
0.0
  0
LINE
  5
2FE
100
AcDbEntity
  8
寸法
370
              20
  6
Continuous
 62
               0
100
AcDbLine
 10
-119.87746798486634
 20
-88.877467984866371
 30
0.0
 11
-122.12253201513366
 21
-91.122532015133658
 31
0.0
  0
LINE
  5
2FF
100
AcDbEntity
  8
寸法
370
              20
  6
Continuous
 62
               0
100
AcDbLine
 10
-11.122532015133629
 20
-91.122532015133658
 30
0.0
 11
-8.8774679848663425
 21
-88.877467984866371
 31
0.0
  0
WIPEOUT
  5
300
100
AcDbEntity
  8
寸法
370
              -2
  6
Continuous
 62
               0
 92
        0
100
AcDbWipeout
 90
        0
 10
-70.26250033643511
 20
-79.412500000000009
 30
0.0
 11
9.5250006728702061
 21
0.0
 31
0.0
 12
0.0
 22
9.5250006728702061
 32
0.0
 13
1.0
 23
1.0
340
0
 70
               7
280
               1
281
              50
282
              50
283
               0
360
0
 71
               2
 91
        5
 14
-0.5
 24
1.4448818230149263
 14
0.5
 24
1.4448818230149263
 14
0.5
 24
0.7782152034432844
 14
-0.5
 24
0.7782152034432844
 14
-0.5
 24
1.4448818230149263
  0
MTEXT
  5
301
100
AcDbEntity
  8
寸法
 62
               0
100
AcDbMText
 10
-70.26250033643511
 20
-82.63697656250001
 30
0.0
 40
4.8865234375000002
 41
0.0
 71
               1
 72
               1
  1
111
  7
ＭＳ ゴシック
 73
               1
 44
0.7828267384257843
  0
POINT
  5
302
100
AcDbEntity
  8
Defpoints
370
               0
 62
               0
100
AcDbPoint
 10
-9.9999999999999858
 20
-70.0
 30
0.0
  0
POINT
  5
303
100
AcDbEntity
  8
Defpoints
370
               0
 62
               0
100
AcDbPoint
 10
-121.0
 20
-70.0
 30
0.0
  0
POINT
  5
304
100
AcDbEntity
  8
Defpoints
370
               0
 62
               0
100
AcDbPoint
 10
-121.0
 20
-90.000000000000014
 30
0.0
  0
ENDBLK
  5
305
100
AcDbEntity
  8
寸法
100
AcDbBlockEnd
  0
BLOCK
  5
306
100
AcDbEntity
  8
寸法
100
AcDbBlockBegin
  2
*D15
 70
               1
 10
0.0
 20
0.0
 30
0.0
  3
*D15
  1

  0
LINE
  5
307
100
AcDbEntity
  8
寸法
370
              -2
  6
Continuous
 62
               0
100
AcDbLine
 10
-119.38750000000002
 20
-29.807477288111834
 30
0.0
 11
-143.17500000000001
 21
-29.807477288111834
 31
0.0
  0
LINE
  5
308
100
AcDbEntity
  8
寸法
370
              -2
  6
Continuous
 62
               0
100
AcDbLine
 10
-119.38750000000002
 20
-71.807477288111841
 30
0.0
 11
-143.17500000000001
 21
-71.807477288111841
 31
0.0
  0
LINE
  5
309
100
AcDbEntity
  8
寸法
370
              -2
  6
Continuous
 62
               0
100
AcDbLine
 10
-140.0
 20
-28.219977288111835
 30
0.0
 11
-140.0
 21
-29.807477288111834
 31
0.0
  0
LINE
  5
30A
100
AcDbEntity
  8
寸法
370
              -2
  6
Continuous
 62
               0
100
AcDbLine
 10
-140.0
 20
-71.807477288111841
 30
0.0
 11
-140.0
 21
-73.394977288111846
 31
0.0
  0
LINE
  5
30B
100
AcDbEntity
  8
寸法
370
              -2
  6
Continuous
 62
               0
100
AcDbLine
 10
-140.0
 20
-29.807477288111834
 30
0.0
 11
-140.0
 21
-71.807477288111841
 31
0.0
  0
LINE
  5
30C
100
AcDbEntity
  8
寸法
370
              20
  6
Continuous
 62
               0
100
AcDbLine
 10
-138.87746798486634
 20
-30.930009303245477
 30
0.0
 11
-141.12253201513366
 21
-28.68494527297819
 31
0.0
  0
LINE
  5
30D
100
AcDbEntity
  8
寸法
370
              20
  6
Continuous
 62
               0
100
AcDbLine
 10
-141.12253201513366
 20
-70.684945272978197
 30
0.0
 11
-138.87746798486634
 21
-72.930009303245484
 31
0.0
  0
WIPEOUT
  5
30E
100
AcDbEntity
  8
寸法
370
              -2
  6
Continuous
 62
               0
 92
        0
100
AcDbWipeout
 90
        0
 10
-147.9375
 20
-44.982477288111838
 30
0.0
 11
6.3499999999999943
 21
0.0
 31
0.0
 12
0.0
 22
6.3499999999999943
 32
0.0
 13
1.0
 23
1.0
340
0
 70
               7
280
               1
281
              50
282
              50
283
               0
360
0
 71
               2
 91
        5
 14
0.5
 24
1.9173228346456705
 14
0.5
 24
0.9173228346456706
 14
-0.5
 24
0.9173228346456706
 14
-0.5
 24
1.9173228346456705
 14
0.5
 24
1.9173228346456705
  0
MTEXT
  5
30F
100
AcDbEntity
  8
寸法
 62
               0
100
AcDbMText
 10
-147.3630234375
 20
-53.982477288111838
 30
0.0
 40
4.8865234375000002
 41
0.0
 71
               1
 72
               1
  1
42
  7
ＭＳ ゴシック
 11
0.0
 21
1.0
 31
0.0
 73
               1
 44
0.7828267384257843
  0
POINT
  5
310
100
AcDbEntity
  8
Defpoints
370
               0
 62
               0
100
AcDbPoint
 10
-117.80000000000001
 20
-71.807477288111841
 30
0.0
  0
POINT
  5
311
100
AcDbEntity
  8
Defpoints
370
               0
 62
               0
100
AcDbPoint
 10
-117.80000000000001
 20
-29.807477288111834
 30
0.0
  0
POINT
  5
312
100
AcDbEntity
  8
Defpoints
370
               0
 62
               0
100
AcDbPoint
 10
-140.0
 20
-29.807477288111834
 30
0.0
  0
ENDBLK
  5
313
100
AcDbEntity
  8
寸法
100
AcDbBlockEnd
  0
BLOCK
  5
314
100
AcDbEntity
  8
寸法
100
AcDbBlockBegin
  2
*D16
 70
               1
 10
0.0
 20
0.0
 30
0.0
  3
*D16
  1

  0
LINE
  5
315
100
AcDbEntity
  8
寸法
370
              -2
  6
Continuous
 62
               0
100
AcDbLine
 10
-122.58750000000001
 20
120.0
 30
0.0
 11
-143.17499999999998
 21
120.0
 31
0.0
  0
LINE
  5
316
100
AcDbEntity
  8
寸法
370
              -2
  6
Continuous
 62
               0
100
AcDbLine
 10
-122.58750000000001
 20
-10.0
 30
0.0
 11
-143.17500000000001
 21
-10.0
 31
0.0
  0
LINE
  5
317
100
AcDbEntity
  8
寸法
370
              -2
  6
Continuous
 62
               0
100
AcDbLine
 10
-140.0
 20
121.58750000000001
 30
0.0
 11
-140.0
 21
120.0
 31
0.0
  0
LINE
  5
318
100
AcDbEntity
  8
寸法
370
              -2
  6
Continuous
 62
               0
100
AcDbLine
 10
-140.0
 20
-10.0
 30
0.0
 11
-140.0
 21
-11.587499999999999
 31
0.0
  0
LINE
  5
319
100
AcDbEntity
  8
寸法
370
              -2
  6
Continuous
 62
               0
100
AcDbLine
 10
-140.0
 20
120.0
 30
0.0
 11
-140.0
 21
-10.0
 31
0.0
  0
LINE
  5
31A
100
AcDbEntity
  8
寸法
370
              20
  6
Continuous
 62
               0
100
AcDbLine
 10
-138.87746798486634
 20
118.87746798486636
 30
0.0
 11
-141.12253201513366
 21
121.12253201513364
 31
0.0
  0
LINE
  5
31B
100
AcDbEntity
  8
寸法
370
              20
  6
Continuous
 62
               0
100
AcDbLine
 10
-141.12253201513366
 20
-8.8774679848663567
 30
0.0
 11
-138.87746798486634
 21
-11.122532015133643
 31
0.0
  0
WIPEOUT
  5
31C
100
AcDbEntity
  8
寸法
370
              -2
  6
Continuous
 62
               0
 92
        0
100
AcDbWipeout
 90
        0
 10
-147.93749999999997
 20
59.237499663564897
 30
0.0
 11
9.5250006728702132
 21
0.0
 31
0.0
 12
0.0
 22
9.5250006728702132
 32
0.0
 13
1.0
 23
1.0
340
0
 70
               7
280
               1
281
              50
282
              50
283
               0
360
0
 71
               2
 91
        5
 14
0.1666666195716413
 24
1.4448818230149256
 14
0.1666666195716413
 24
0.4448818230149256
 14
-0.5
 24
0.4448818230149256
 14
-0.5
 24
1.4448818230149256
 14
0.1666666195716413
 24
1.4448818230149256
  0
MTEXT
  5
31D
100
AcDbEntity
  8
寸法
 62
               0
100
AcDbMText
 10
-147.36302343749998
 20
50.237499663564897
 30
0.0
 40
4.8865234375000002
 41
0.0
 71
               1
 72
               1
  1
130
  7
ＭＳ ゴシック
 11
0.0
 21
1.0
 31
0.0
 73
               1
 44
0.7828267384257843
  0
POINT
  5
31E
100
AcDbEntity
  8
Defpoints
370
               0
 62
               0
100
AcDbPoint
 10
-121.0
 20
-10.0
 30
0.0
  0
POINT
  5
31F
100
AcDbEntity
  8
Defpoints
370
               0
 62
               0
100
AcDbPoint
 10
-121.0
 20
120.0
 30
0.0
  0
POINT
  5
320
100
AcDbEntity
  8
Defpoints
370
               0
 62
               0
100
AcDbPoint
 10
-140.0
 20
120.0
 30
0.0
  0
ENDBLK
  5
321
100
AcDbEntity
  8
寸法
100
AcDbBlockEnd
  0
BLOCK
  5
322
100
AcDbEntity
  8
寸法
100
AcDbBlockBegin
  2
*D17
 70
               1
 10
0.0
 20
0.0
 30
0.0
  3
*D17
  1

  0
LINE
  5
323
100
AcDbEntity
  8
寸法
370
              -2
  6
Continuous
 62
               0
100
AcDbLine
 10
140.0
 20
-56.719977288111835
 30
0.0
 11
140.0
 21
-36.825000000000003
 31
0.0
  0
LINE
  5
324
100
AcDbEntity
  8
寸法
370
              -2
  6
Continuous
 62
               0
100
AcDbLine
 10
160.0
 20
-56.719977288111835
 30
0.0
 11
160.0
 21
-36.825000000000003
 31
0.0
  0
LINE
  5
325
100
AcDbEntity
  8
寸法
370
              -2
  6
Continuous
 62
               0
100
AcDbLine
 10
138.41250000000002
 20
-40.0
 30
0.0
 11
140.0
 21
-40.0
 31
0.0
  0
LINE
  5
326
100
AcDbEntity
  8
寸法
370
              -2
  6
Continuous
 62
               0
100
AcDbLine
 10
160.0
 20
-40.0
 30
0.0
 11
161.58750000000001
 21
-40.0
 31
0.0
  0
LINE
  5
327
100
AcDbEntity
  8
寸法
370
              -2
  6
Continuous
 62
               0
100
AcDbLine
 10
140.0
 20
-40.0
 30
0.0
 11
160.0
 21
-40.0
 31
0.0
  0
LINE
  5
328
100
AcDbEntity
  8
寸法
370
              20
  6
Continuous
 62
               0
100
AcDbLine
 10
141.12253201513366
 20
-38.877467984866357
 30
0.0
 11
138.87746798486637
 21
-41.122532015133643
 31
0.0
  0
LINE
  5
329
100
AcDbEntity
  8
寸法
370
              20
  6
Continuous
 62
               0
100
AcDbLine
 10
158.87746798486634
 20
-41.122532015133643
 30
0.0
 11
161.12253201513366
 21
-38.877467984866357
 31
0.0
  0
WIPEOUT
  5
32A
100
AcDbEntity
  8
寸法
370
              -2
  6
Continuous
 62
               0
 92
        0
100
AcDbWipeout
 90
        0
 10
148.41249999999999
 20
-29.412500000000001
 30
0.0
 11
3.1749999999999972
 21
0.0
 31
0.0
 12
0.0
 22
3.1749999999999972
 32
0.0
 13
1.0
 23
1.0
340
0
 70
               7
280
               1
281
              50
282
              50
283
               0
360
0
 71
               2
 91
        5
 14
-0.5
 24
3.3346456692913411
 14
0.4999999999999956
 24
3.3346456692913411
 14
0.4999999999999956
 24
2.3346456692913411
 14
-0.5
 24
2.3346456692913411
 14
-0.5
 24
3.3346456692913411
  0
MTEXT
  5
32B
100
AcDbEntity
  8
寸法
 62
               0
100
AcDbMText
 10
148.41249999999999
 20
-35.524738281250002
 30
0.0
 40
2.4432617187500001
 41
0.0
 71
               1
 72
               1
  1
20
  7
ＭＳ ゴシック
 73
               1
 44
0.7828267384257843
  0
POINT
  5
32C
100
AcDbEntity
  8
Defpoints
370
               0
 62
               0
100
AcDbPoint
 10
160.0
 20
-58.307477288111841
 30
0.0
  0
POINT
  5
32D
100
AcDbEntity
  8
Defpoints
370
               0
 62
               0
100
AcDbPoint
 10
140.0
 20
-58.307477288111841
 30
0.0
  0
POINT
  5
32E
100
AcDbEntity
  8
Defpoints
370
               0
 62
               0
100
AcDbPoint
 10
140.0
 20
-40.0
 30
0.0
  0
ENDBLK
  5
32F
100
AcDbEntity
  8
寸法
100
AcDbBlockEnd
  0
BLOCK
  5
330
100
AcDbEntity
  8
寸法
100
AcDbBlockBegin
  2
*D18
 70
               1
 10
0.0
 20
0.0
 30
0.0
  3
*D18
  1

  0
LINE
  5
331
100
AcDbEntity
  8
寸法
370
              -2
  6
Continuous
 62
               0
100
AcDbLine
 10
140.0
 20
-67.894977288111846
 30
0.0
 11
140.0
 21
-93.175000000000011
 31
0.0
  0
LINE
  5
332
100
AcDbEntity
  8
寸法
370
              -2
  6
Continuous
 62
               0
100
AcDbLine
 10
178.41742430504416
 20
-67.894977288111846
 30
0.0
 11
178.41742430504416
 21
-93.175000000000011
 31
0.0
  0
LINE
  5
333
100
AcDbEntity
  8
寸法
370
              -2
  6
Continuous
 62
               0
100
AcDbLine
 10
138.41250000000002
 20
-90.000000000000014
 30
0.0
 11
140.0
 21
-90.000000000000014
 31
0.0
  0
LINE
  5
334
100
AcDbEntity
  8
寸法
370
              -2
  6
Continuous
 62
               0
100
AcDbLine
 10
178.41742430504416
 20
-90.000000000000014
 30
0.0
 11
180.00492430504417
 21
-90.000000000000014
 31
0.0
  0
LINE
  5
335
100
AcDbEntity
  8
寸法
370
              -2
  6
Continuous
 62
               0
100
AcDbLine
 10
140.0
 20
-90.000000000000014
 30
0.0
 11
178.41742430504416
 21
-90.000000000000014
 31
0.0
  0
LINE
  5
336
100
AcDbEntity
  8
寸法
370
              20
  6
Continuous
 62
               0
100
AcDbLine
 10
141.12253201513366
 20
-88.877467984866371
 30
0.0
 11
138.87746798486637
 21
-91.122532015133658
 31
0.0
  0
LINE
  5
337
100
AcDbEntity
  8
寸法
370
              20
  6
Continuous
 62
               0
100
AcDbLine
 10
177.29489228991051
 20
-91.122532015133658
 30
0.0
 11
179.53995632017782
 21
-88.877467984866371
 31
0.0
  0
WIPEOUT
  5
338
100
AcDbEntity
  8
寸法
370
              -2
  6
Continuous
 62
               0
 92
        0
100
AcDbWipeout
 90
        0
 10
156.03371215252207
 20
-79.412500000000023
 30
0.0
 11
6.3499999999999943
 21
0.0
 31
0.0
 12
0.0
 22
6.3499999999999943
 32
0.0
 13
1.0
 23
1.0
340
0
 70
               7
280
               1
281
              50
282
              50
283
               0
360
0
 71
               2
 91
        5
 14
-0.5
 24
1.9173228346456705
 14
0.5
 24
1.9173228346456705
 14
0.5
 24
1.4173228346456705
 14
-0.5
 24
1.4173228346456705
 14
-0.5
 24
1.9173228346456705
  0
MTEXT
  5
339
100
AcDbEntity
  8
寸法
 62
               0
100
AcDbMText
 10
156.03371215252207
 20
-85.524738281250023
 30
0.0
 40
2.4432617187500001
 41
0.0
 71
               1
 72
               1
  1
38.4
  7
ＭＳ ゴシック
 73
               1
 44
0.7828267384257843
  0
POINT
  5
33A
100
AcDbEntity
  8
Defpoints
370
               0
 62
               0
100
AcDbPoint
 10
178.41742430504416
 20
-66.307477288111841
 30
0.0
  0
POINT
  5
33B
100
AcDbEntity
  8
Defpoints
370
               0
 62
               0
100
AcDbPoint
 10
140.0
 20
-66.307477288111841
 30
0.0
  0
POINT
  5
33C
100
AcDbEntity
  8
Defpoints
370
               0
 62
               0
100
AcDbPoint
 10
140.0
 20
-90.000000000000014
 30
0.0
  0
ENDBLK
  5
33D
100
AcDbEntity
  8
寸法
100
AcDbBlockEnd
  0
ENDSEC
  0
SECTION
  2
ENTITIES
  0
POLYLINE
  5
33E
100
AcDbEntity
  8
0
370
               5
  6
Continuous
 62
               7
100
AcDb2dPolyline
 66
               1
 10
0.0
 20
0.0
 30
0.0
 70
               1
 75
               5
  0
VERTEX
  5
33F
100
AcDbEntity
  8
0
370
               5
  6
Continuous
 62
               7
100
AcDbVertex
100
AcDb2dVertex
 10
-173.29999999999995
 20
154.10000000000002
 30
0.0
  0
VERTEX
  5
340
100
AcDbEntity
  8
0
370
               5
  6
Continuous
 62
               7
100
AcDbVertex
100
AcDb2dVertex
 10
224.70000000000005
 20
154.10000000000002
 30
0.0
  0
VERTEX
  5
341
100
AcDbEntity
  8
0
370
               5
  6
Continuous
 62
               7
100
AcDbVertex
100
AcDb2dVertex
 10
224.70000000000005
 20
-120.89999999999998
 30
0.0
  0
VERTEX
  5
342
100
AcDbEntity
  8
0
370
               5
  6
Continuous
 62
               7
100
AcDbVertex
100
AcDb2dVertex
 10
-173.29999999999995
 20
-120.89999999999998
 30
0.0
  0
SEQEND
  5
343
100
AcDbEntity
  8
0
370
               5
  6
Continuous
 62
               7
  0
LINE
  5
344
100
AcDbEntity
  8
0
370
               5
  6
Continuous
 62
               7
100
AcDbLine
 10
224.70000000000005
 20
-48.399999999999977
 30
0.0
 11
229.70000000000005
 21
-48.399999999999977
 31
0.0
  0
LINE
  5
345
100
AcDbEntity
  8
0
370
               5
  6
Continuous
 62
               7
100
AcDbLine
 10
229.70000000000005
 20
19.100000000000023
 30
0.0
 11
224.70000000000005
 21
19.100000000000023
 31
0.0
  0
SOLID
  5
346
100
AcDbEntity
  8
0
370
               5
 62
               7
100
AcDbTrace
 10
224.70000000000005
 20
19.100000000000023
 30
0.0
 11
227.87500000000006
 21
19.950738685968837
 31
0.0
 12
227.87500000000006
 22
18.249261314031209
 32
0.0
 13
227.87500000000006
 23
18.249261314031209
 33
0.0
  0
LINE
  5
347
100
AcDbEntity
  8
0
370
               5
  6
Continuous
 62
               7
100
AcDbLine
 10
224.70000000000005
 20
86.600000000000023
 30
0.0
 11
229.70000000000005
 21
86.600000000000023
 31
0.0
  0
MTEXT
  5
348
100
AcDbEntity
  8
0
 62
               7
100
AcDbMText
 10
226.14166666666671
 20
122.0836822916667
 30
0.0
 40
3.2576822916666663
 41
0.0
 71
               1
 72
               1
  1
1
  7
ＭＳ ゴシック
 73
               1
 44
0.7828267384257843
  0
MTEXT
  5
349
100
AcDbEntity
  8
0
 62
               7
100
AcDbMText
 10
226.14166666666671
 20
54.58368229166669
 30
0.0
 40
3.2576822916666663
 41
0.0
 71
               1
 72
               1
  1
2
  7
ＭＳ ゴシック
 73
               1
 44
0.7828267384257843
  0
MTEXT
  5
34A
100
AcDbEntity
  8
0
 62
               7
100
AcDbMText
 10
226.14166666666671
 20
-12.91631770833331
 30
0.0
 40
3.2576822916666663
 41
0.0
 71
               1
 72
               1
  1
3
  7
ＭＳ ゴシック
 73
               1
 44
0.7828267384257843
  0
MTEXT
  5
34B
100
AcDbEntity
  8
0
 62
               7
100
AcDbMText
 10
226.14166666666671
 20
-80.416317708333295
 30
0.0
 40
3.2576822916666663
 41
0.0
 71
               1
 72
               1
  1
4
  7
ＭＳ ゴシック
 73
               1
 44
0.7828267384257843
  0
LINE
  5
34C
100
AcDbEntity
  8
0
370
               5
  6
Continuous
 62
               7
100
AcDbLine
 10
-178.29999999999995
 20
-48.399999999999977
 30
0.0
 11
-173.29999999999995
 21
-48.399999999999977
 31
0.0
  0
LINE
  5
34D
100
AcDbEntity
  8
0
370
               5
  6
Continuous
 62
               7
100
AcDbLine
 10
-173.29999999999995
 20
19.100000000000023
 30
0.0
 11
-178.29999999999995
 21
19.100000000000023
 31
0.0
  0
SOLID
  5
34E
100
AcDbEntity
  8
0
370
               5
 62
               7
100
AcDbTrace
 10
-173.29999999999995
 20
19.100000000000023
 30
0.0
 11
-176.47499999999997
 21
18.249261314031209
 31
0.0
 12
-176.47499999999997
 22
19.950738685968837
 32
0.0
 13
-176.47499999999997
 23
19.950738685968837
 33
0.0
  0
LINE
  5
34F
100
AcDbEntity
  8
0
370
               5
  6
Continuous
 62
               7
100
AcDbLine
 10
-178.29999999999995
 20
86.600000000000023
 30
0.0
 11
-173.29999999999995
 21
86.600000000000023
 31
0.0
  0
MTEXT
  5
350
100
AcDbEntity
  8
0
 62
               7
100
AcDbMText
 10
-176.85833333333329
 20
122.0836822916667
 30
0.0
 40
3.2576822916666663
 41
0.0
 71
               1
 72
               1
  1
1
  7
ＭＳ ゴシック
 73
               1
 44
0.7828267384257843
  0
MTEXT
  5
351
100
AcDbEntity
  8
0
 62
               7
100
AcDbMText
 10
-176.85833333333329
 20
54.58368229166669
 30
0.0
 40
3.2576822916666663
 41
0.0
 71
               1
 72
               1
  1
2
  7
ＭＳ ゴシック
 73
               1
 44
0.7828267384257843
  0
MTEXT
  5
352
100
AcDbEntity
  8
0
 62
               7
100
AcDbMText
 10
-176.85833333333329
 20
-12.91631770833331
 30
0.0
 40
3.2576822916666663
 41
0.0
 71
               1
 72
               1
  1
3
  7
ＭＳ ゴシック
 73
               1
 44
0.7828267384257843
  0
MTEXT
  5
353
100
AcDbEntity
  8
0
 62
               7
100
AcDbMText
 10
-176.85833333333329
 20
-80.416317708333295
 30
0.0
 40
3.2576822916666663
 41
0.0
 71
               1
 72
               1
  1
4
  7
ＭＳ ゴシック
 73
               1
 44
0.7828267384257843
  0
LINE
  5
354
100
AcDbEntity
  8
0
370
               5
  6
Continuous
 62
               7
100
AcDbLine
 10
25.800000000000011
 20
159.10000000000002
 30
0.0
 11
25.800000000000011
 21
154.10000000000002
 31
0.0
  0
SOLID
  5
355
100
AcDbEntity
  8
0
370
               5
 62
               7
100
AcDbTrace
 10
25.800000000000011
 20
154.10000000000002
 30
0.0
 11
24.949261314031197
 21
157.27500000000003
 31
0.0
 12
26.650738685968825
 22
157.27500000000003
 32
0.0
 13
26.650738685968825
 23
157.27500000000003
 33
0.0
  0
LINE
  5
356
100
AcDbEntity
  8
0
370
               5
  6
Continuous
 62
               7
100
AcDbLine
 10
-106.80000000000001
 20
159.10000000000002
 30
0.0
 11
-106.80000000000001
 21
154.10000000000002
 31
0.0
  0
LINE
  5
357
100
AcDbEntity
  8
0
370
               5
  6
Continuous
 62
               7
100
AcDbLine
 10
-40.5
 20
159.10000000000002
 30
0.0
 11
-40.5
 21
154.10000000000002
 31
0.0
  0
LINE
  5
358
100
AcDbEntity
  8
0
370
               5
  6
Continuous
 62
               7
100
AcDbLine
 10
92.100000000000023
 20
159.10000000000002
 30
0.0
 11
92.100000000000023
 21
154.10000000000002
 31
0.0
  0
LINE
  5
359
100
AcDbEntity
  8
0
370
               5
  6
Continuous
 62
               7
100
AcDbLine
 10
158.40000000000003
 20
159.10000000000002
 30
0.0
 11
158.40000000000003
 21
154.10000000000002
 31
0.0
  0
MTEXT
  5
35A
100
AcDbEntity
  8
0
 62
               7
100
AcDbMText
 10
-141.00833333333335
 20
158.33368229166669
 30
0.0
 40
3.7041666666666662
 41
0.0
 71
               1
 72
               1
  1
{\H0.8795x;\lA}
 73
               1
 44
0.7828267384257843
  0
MTEXT
  5
35B
100
AcDbEntity
  8
0
 62
               7
100
AcDbMText
 10
-74.708333333333343
 20
158.33368229166669
 30
0.0
 40
3.7041666666666662
 41
0.0
 71
               1
 72
               1
  1
{\H0.8795x;\lB}
 73
               1
 44
0.7828267384257843
  0
MTEXT
  5
35C
100
AcDbEntity
  8
0
 62
               7
100
AcDbMText
 10
-8.4083333333333243
 20
158.33368229166669
 30
0.0
 40
3.7041666666666662
 41
0.0
 71
               1
 72
               1
  1
{\H0.8795x;\lC}
 73
               1
 44
0.7828267384257843
  0
MTEXT
  5
35D
100
AcDbEntity
  8
0
 62
               7
100
AcDbMText
 10
57.89166666666668
 20
158.33368229166669
 30
0.0
 40
3.7041666666666662
 41
0.0
 71
               1
 72
               1
  1
{\H0.8795x;\lD}
 73
               1
 44
0.7828267384257843
  0
MTEXT
  5
35E
100
AcDbEntity
  8
0
 62
               7
100
AcDbMText
 10
124.19166666666669
 20
158.33368229166666
 30
0.0
 40
3.7041666666666662
 41
0.0
 71
               1
 72
               1
  1
{\H0.8795x;\lE}
 73
               1
 44
0.7828267384257843
  0
MTEXT
  5
35F
100
AcDbEntity
  8
0
 62
               7
100
AcDbMText
 10
190.4916666666667
 20
158.33368229166669
 30
0.0
 40
3.7041666666666662
 41
0.0
 71
               1
 72
               1
  1
{\H0.8795x;\lF}
 73
               1
 44
0.7828267384257843
  0
LINE
  5
360
100
AcDbEntity
  8
0
370
               5
  6
Continuous
 62
               7
100
AcDbLine
 10
25.800000000000011
 20
-120.89999999999998
 30
0.0
 11
25.800000000000011
 21
-125.89999999999998
 31
0.0
  0
SOLID
  5
361
100
AcDbEntity
  8
0
370
               5
 62
               7
100
AcDbTrace
 10
25.800000000000011
 20
-120.89999999999998
 30
0.0
 11
26.650738685968825
 21
-124.07499999999999
 31
0.0
 12
24.949261314031197
 22
-124.07499999999999
 32
0.0
 13
24.949261314031197
 23
-124.07499999999999
 33
0.0
  0
LINE
  5
362
100
AcDbEntity
  8
0
370
               5
  6
Continuous
 62
               7
100
AcDbLine
 10
-106.80000000000001
 20
-120.89999999999998
 30
0.0
 11
-106.80000000000001
 21
-125.89999999999998
 31
0.0
  0
LINE
  5
363
100
AcDbEntity
  8
0
370
               5
  6
Continuous
 62
               7
100
AcDbLine
 10
-40.5
 20
-120.89999999999998
 30
0.0
 11
-40.5
 21
-125.89999999999998
 31
0.0
  0
LINE
  5
364
100
AcDbEntity
  8
0
370
               5
  6
Continuous
 62
               7
100
AcDbLine
 10
92.100000000000023
 20
-120.89999999999998
 30
0.0
 11
92.100000000000023
 21
-125.89999999999998
 31
0.0
  0
LINE
  5
365
100
AcDbEntity
  8
0
370
               5
  6
Continuous
 62
               7
100
AcDbLine
 10
158.40000000000003
 20
-120.89999999999998
 30
0.0
 11
158.40000000000003
 21
-125.89999999999998
 31
0.0
  0
MTEXT
  5
366
100
AcDbEntity
  8
0
 62
               7
100
AcDbMText
 10
-141.00833333333335
 20
-121.66631770833331
 30
0.0
 40
3.7041666666666662
 41
0.0
 71
               1
 72
               1
  1
{\H0.8795x;\lA}
 73
               1
 44
0.7828267384257843
  0
MTEXT
  5
367
100
AcDbEntity
  8
0
 62
               7
100
AcDbMText
 10
-74.708333333333343
 20
-121.66631770833331
 30
0.0
 40
3.7041666666666662
 41
0.0
 71
               1
 72
               1
  1
{\H0.8795x;\lB}
 73
               1
 44
0.7828267384257843
  0
MTEXT
  5
368
100
AcDbEntity
  8
0
 62
               7
100
AcDbMText
 10
-8.4083333333333314
 20
-121.66631770833331
 30
0.0
 40
3.7041666666666662
 41
0.0
 71
               1
 72
               1
  1
{\H0.8795x;\lC}
 73
               1
 44
0.7828267384257843
  0
MTEXT
  5
369
100
AcDbEntity
  8
0
 62
               7
100
AcDbMText
 10
57.89166666666668
 20
-121.66631770833331
 30
0.0
 40
3.7041666666666662
 41
0.0
 71
               1
 72
               1
  1
{\H0.8795x;\lD}
 73
               1
 44
0.7828267384257843
  0
MTEXT
  5
36A
100
AcDbEntity
  8
0
 62
               7
100
AcDbMText
 10
124.19166666666672
 20
-121.66631770833334
 30
0.0
 40
3.7041666666666662
 41
0.0
 71
               1
 72
               1
  1
{\H0.8795x;\lE}
 73
               1
 44
0.7828267384257843
  0
MTEXT
  5
36B
100
AcDbEntity
  8
0
 62
               7
100
AcDbMText
 10
190.49166666666667
 20
-121.66631770833331
 30
0.0
 40
3.7041666666666662
 41
0.0
 71
               1
 72
               1
  1
{\H0.8795x;\lF}
 73
               1
 44
0.7828267384257843
  0
MTEXT
  5
36C
100
AcDbEntity
  8
一般
 62
               7
100
AcDbMText
 10
148.28888888888895
 20
-103.27591180555554
 30
0.0
 40
2.1717881944444444
 41
0.0
 71
               1
 72
               1
  1
mm
  7
中ゴシック体
 73
               1
 44
0.7828267384257843
  0
MTEXT
  5
36D
100
AcDbEntity
  8
一般
 62
               7
100
AcDbMText
 10
155.03359727750149
 20
-111.40102645833332
 30
0.0
 40
1.0858940972222222
 41
0.0
 71
               1
 72
               1
  1
CHECKED
  7
中ゴシック体
 73
               1
 44
0.7828267384257843
  0
MTEXT
  5
36E
100
AcDbEntity
  8
一般
 62
               7
100
AcDbMText
 10
165.09193246122788
 20
-111.40102645833332
 30
0.0
 40
1.0858940972222222
 41
0.0
 71
               1
 72
               1
  1
SCALE
  7
中ゴシック体
 73
               1
 44
0.7828267384257843
  0
MTEXT
  5
36F
100
AcDbEntity
  8
一般
 62
               7
100
AcDbMText
 10
145.09193246122788
 20
-111.40102645833332
 30
0.0
 40
1.0858940972222222
 41
0.0
 71
               1
 72
               1
  1
DRAWN
  7
中ゴシック体
 73
               1
 44
0.7828267384257843
  0
MTEXT
  5
370
100
AcDbEntity
  8
一般
 62
               7
100
AcDbMText
 10
155.02109996898233
 20
-103.46485748906248
 30
0.0
 40
1.6288437109374998
 41
0.0
 71
               1
 72
               1
  1
DATE
  7
ＭＳ ゴシック
 73
               1
 44
0.7828267384257843
  0
INSERT
  5
371
100
AcDbEntity
  8
一般
 62
               7
100
AcDbBlockReference
  2
グループ-1
 10
25.5
 20
16.5
 30
0.0
  0
POLYLINE
  5
372
100
AcDbEntity
  8
一般
370
               5
  6
Continuous
 62
               7
100
AcDb2dPolyline
 66
               1
 10
0.0
 20
0.0
 30
0.0
 70
               1
 75
               5
  0
VERTEX
  5
373
100
AcDbEntity
  8
一般
370
               5
  6
Continuous
 62
               7
100
AcDbVertex
100
AcDb2dVertex
 10
174.70000000000005
 20
-112.89999999999998
 30
0.0
  0
VERTEX
  5
374
100
AcDbEntity
  8
一般
370
               5
  6
Continuous
 62
               7
100
AcDbVertex
100
AcDb2dVertex
 10
224.70000000000005
 20
-112.89999999999998
 30
0.0
  0
VERTEX
  5
375
100
AcDbEntity
  8
一般
370
               5
  6
Continuous
 62
               7
100
AcDbVertex
100
AcDb2dVertex
 10
224.70000000000005
 20
-120.89999999999998
 30
0.0
  0
VERTEX
  5
376
100
AcDbEntity
  8
一般
370
               5
  6
Continuous
 62
               7
100
AcDbVertex
100
AcDb2dVertex
 10
174.70000000000005
 20
-120.89999999999998
 30
0.0
  0
SEQEND
  5
377
100
AcDbEntity
  8
一般
370
               5
  6
Continuous
 62
               7
  0
POLYLINE
  5
378
100
AcDbEntity
  8
一般
370
               5
  6
Continuous
 62
               7
100
AcDb2dPolyline
 66
               1
 10
0.0
 20
0.0
 30
0.0
 70
               1
 75
               5
  0
VERTEX
  5
379
100
AcDbEntity
  8
一般
370
               5
  6
Continuous
 62
               7
100
AcDbVertex
100
AcDb2dVertex
 10
174.70000000000005
 20
-102.93169999999998
 30
0.0
  0
VERTEX
  5
37A
100
AcDbEntity
  8
一般
370
               5
  6
Continuous
 62
               7
100
AcDbVertex
100
AcDb2dVertex
 10
224.70000000000005
 20
-102.93169999999998
 30
0.0
  0
VERTEX
  5
37B
100
AcDbEntity
  8
一般
370
               5
  6
Continuous
 62
               7
100
AcDbVertex
100
AcDb2dVertex
 10
224.70000000000005
 20
-112.89999999999998
 30
0.0
  0
VERTEX
  5
37C
100
AcDbEntity
  8
一般
370
               5
  6
Continuous
 62
               7
100
AcDbVertex
100
AcDb2dVertex
 10
174.70000000000005
 20
-112.89999999999998
 30
0.0
  0
SEQEND
  5
37D
100
AcDbEntity
  8
一般
370
               5
  6
Continuous
 62
               7
  0
MTEXT
  5
37E
100
AcDbEntity
  8
一般
 62
               7
100
AcDbMText
 10
177.12222222222226
 20
-115.74421180555555
 30
0.0
 40
2.1717881944444444
 41
0.0
 71
               1
 72
               1
  1
株式会社エレクトリ　営業部プロ課
  7
ＭＳ ゴシック
 73
               1
 44
0.7828267384257843
  0
POLYLINE
  5
37F
100
AcDbEntity
  8
一般
370
               5
  6
Continuous
 62
               7
100
AcDb2dPolyline
 66
               1
 10
0.0
 20
0.0
 30
0.0
 70
               1
 75
               5
  0
VERTEX
  5
380
100
AcDbEntity
  8
一般
370
               5
  6
Continuous
 62
               7
100
AcDbVertex
100
AcDb2dVertex
 10
154.70000000000005
 20
-102.93169999999998
 30
0.0
  0
VERTEX
  5
381
100
AcDbEntity
  8
一般
370
               5
  6
Continuous
 62
               7
100
AcDbVertex
100
AcDb2dVertex
 10
174.70000000000005
 20
-102.93169999999998
 30
0.0
  0
VERTEX
  5
382
100
AcDbEntity
  8
一般
370
               5
  6
Continuous
 62
               7
100
AcDbVertex
100
AcDb2dVertex
 10
174.70000000000005
 20
-110.93169999999998
 30
0.0
  0
VERTEX
  5
383
100
AcDbEntity
  8
一般
370
               5
  6
Continuous
 62
               7
100
AcDbVertex
100
AcDb2dVertex
 10
154.70000000000005
 20
-110.93169999999998
 30
0.0
  0
SEQEND
  5
384
100
AcDbEntity
  8
一般
370
               5
  6
Continuous
 62
               7
  0
POLYLINE
  5
385
100
AcDbEntity
  8
一般
370
               5
  6
Continuous
 62
               7
100
AcDb2dPolyline
 66
               1
 10
0.0
 20
0.0
 30
0.0
 70
               1
 75
               5
  0
VERTEX
  5
386
100
AcDbEntity
  8
一般
370
               5
  6
Continuous
 62
               7
100
AcDbVertex
100
AcDb2dVertex
 10
144.70000000000005
 20
-102.93169999999998
 30
0.0
  0
VERTEX
  5
387
100
AcDbEntity
  8
一般
370
               5
  6
Continuous
 62
               7
100
AcDbVertex
100
AcDb2dVertex
 10
154.70000000000005
 20
-102.93169999999998
 30
0.0
  0
VERTEX
  5
388
100
AcDbEntity
  8
一般
370
               5
  6
Continuous
 62
               7
100
AcDbVertex
100
AcDb2dVertex
 10
154.70000000000005
 20
-105.93169999999998
 30
0.0
  0
VERTEX
  5
389
100
AcDbEntity
  8
一般
370
               5
  6
Continuous
 62
               7
100
AcDbVertex
100
AcDb2dVertex
 10
144.70000000000005
 20
-105.93169999999998
 30
0.0
  0
SEQEND
  5
38A
100
AcDbEntity
  8
一般
370
               5
  6
Continuous
 62
               7
  0
POLYLINE
  5
38B
100
AcDbEntity
  8
一般
370
               5
  6
Continuous
 62
               7
100
AcDb2dPolyline
 66
               1
 10
0.0
 20
0.0
 30
0.0
 70
               1
 75
               5
  0
VERTEX
  5
38C
100
AcDbEntity
  8
一般
370
               5
  6
Continuous
 62
               7
100
AcDbVertex
100
AcDb2dVertex
 10
144.70000000000005
 20
-105.93169999999998
 30
0.0
  0
VERTEX
  5
38D
100
AcDbEntity
  8
一般
370
               5
  6
Continuous
 62
               7
100
AcDbVertex
100
AcDb2dVertex
 10
154.70000000000005
 20
-105.93169999999998
 30
0.0
  0
VERTEX
  5
38E
100
AcDbEntity
  8
一般
370
               5
  6
Continuous
 62
               7
100
AcDbVertex
100
AcDb2dVertex
 10
154.70000000000005
 20
-110.93169999999998
 30
0.0
  0
VERTEX
  5
38F
100
AcDbEntity
  8
一般
370
               5
  6
Continuous
 62
               7
100
AcDbVertex
100
AcDb2dVertex
 10
144.70000000000005
 20
-110.93169999999998
 30
0.0
  0
SEQEND
  5
390
100
AcDbEntity
  8
一般
370
               5
  6
Continuous
 62
               7
  0
POLYLINE
  5
391
100
AcDbEntity
  8
一般
370
               5
  6
Continuous
 62
               7
100
AcDb2dPolyline
 66
               1
 10
0.0
 20
0.0
 30
0.0
 70
               1
 75
               5
  0
VERTEX
  5
392
100
AcDbEntity
  8
一般
370
               5
  6
Continuous
 62
               7
100
AcDbVertex
100
AcDb2dVertex
 10
164.70000000000005
 20
-110.93169999999998
 30
0.0
  0
VERTEX
  5
393
100
AcDbEntity
  8
一般
370
               5
  6
Continuous
 62
               7
100
AcDbVertex
100
AcDb2dVertex
 10
174.70000000000005
 20
-110.93169999999998
 30
0.0
  0
VERTEX
  5
394
100
AcDbEntity
  8
一般
370
               5
  6
Continuous
 62
               7
100
AcDbVertex
100
AcDb2dVertex
 10
174.70000000000005
 20
-120.89999999999998
 30
0.0
  0
VERTEX
  5
395
100
AcDbEntity
  8
一般
370
               5
  6
Continuous
 62
               7
100
AcDbVertex
100
AcDb2dVertex
 10
164.70000000000005
 20
-120.89999999999998
 30
0.0
  0
SEQEND
  5
396
100
AcDbEntity
  8
一般
370
               5
  6
Continuous
 62
               7
  0
POLYLINE
  5
397
100
AcDbEntity
  8
一般
370
               5
  6
Continuous
 62
               7
100
AcDb2dPolyline
 66
               1
 10
0.0
 20
0.0
 30
0.0
 70
               1
 75
               5
  0
VERTEX
  5
398
100
AcDbEntity
  8
一般
370
               5
  6
Continuous
 62
               7
100
AcDbVertex
100
AcDb2dVertex
 10
144.70000000000005
 20
-110.93169999999998
 30
0.0
  0
VERTEX
  5
399
100
AcDbEntity
  8
一般
370
               5
  6
Continuous
 62
               7
100
AcDbVertex
100
AcDb2dVertex
 10
154.70000000000005
 20
-110.93169999999998
 30
0.0
  0
VERTEX
  5
39A
100
AcDbEntity
  8
一般
370
               5
  6
Continuous
 62
               7
100
AcDbVertex
100
AcDb2dVertex
 10
154.70000000000005
 20
-120.89999999999998
 30
0.0
  0
VERTEX
  5
39B
100
AcDbEntity
  8
一般
370
               5
  6
Continuous
 62
               7
100
AcDbVertex
100
AcDb2dVertex
 10
144.70000000000005
 20
-120.89999999999998
 30
0.0
  0
SEQEND
  5
39C
100
AcDbEntity
  8
一般
370
               5
  6
Continuous
 62
               7
  0
POLYLINE
  5
39D
100
AcDbEntity
  8
一般
370
               5
  6
Continuous
 62
               7
100
AcDb2dPolyline
 66
               1
 10
0.0
 20
0.0
 30
0.0
 70
               1
 75
               5
  0
VERTEX
  5
39E
100
AcDbEntity
  8
一般
370
               5
  6
Continuous
 62
               7
100
AcDbVertex
100
AcDb2dVertex
 10
154.70000000000005
 20
-110.93169999999998
 30
0.0
  0
VERTEX
  5
39F
100
AcDbEntity
  8
一般
370
               5
  6
Continuous
 62
               7
100
AcDbVertex
100
AcDb2dVertex
 10
164.70000000000005
 20
-110.93169999999998
 30
0.0
  0
VERTEX
  5
3A0
100
AcDbEntity
  8
一般
370
               5
  6
Continuous
 62
               7
100
AcDbVertex
100
AcDb2dVertex
 10
164.70000000000005
 20
-120.89999999999998
 30
0.0
  0
VERTEX
  5
3A1
100
AcDbEntity
  8
一般
370
               5
  6
Continuous
 62
               7
100
AcDbVertex
100
AcDb2dVertex
 10
154.70000000000005
 20
-120.89999999999998
 30
0.0
  0
SEQEND
  5
3A2
100
AcDbEntity
  8
一般
370
               5
  6
Continuous
 62
               7
  0
POLYLINE
  5
3A3
100
AcDbEntity
  8
一般
370
               5
  6
Continuous
 62
               7
100
AcDb2dPolyline
 66
               1
 10
0.0
 20
0.0
 30
0.0
 70
               1
 75
               5
  0
VERTEX
  5
3A4
100
AcDbEntity
  8
一般
370
               5
  6
Continuous
 62
               7
100
AcDbVertex
100
AcDb2dVertex
 10
104.70000000000005
 20
-116.39999999999998
 30
0.0
  0
VERTEX
  5
3A5
100
AcDbEntity
  8
一般
370
               5
  6
Continuous
 62
               7
100
AcDbVertex
100
AcDb2dVertex
 10
144.70000000000005
 20
-116.39999999999998
 30
0.0
  0
VERTEX
  5
3A6
100
AcDbEntity
  8
一般
370
               5
  6
Continuous
 62
               7
100
AcDbVertex
100
AcDb2dVertex
 10
144.70000000000005
 20
-120.89999999999998
 30
0.0
  0
VERTEX
  5
3A7
100
AcDbEntity
  8
一般
370
               5
  6
Continuous
 62
               7
100
AcDbVertex
100
AcDb2dVertex
 10
104.70000000000005
 20
-120.89999999999998
 30
0.0
  0
SEQEND
  5
3A8
100
AcDbEntity
  8
一般
370
               5
  6
Continuous
 62
               7
  0
POLYLINE
  5
3A9
100
AcDbEntity
  8
一般
370
               5
  6
Continuous
 62
               7
100
AcDb2dPolyline
 66
               1
 10
0.0
 20
0.0
 30
0.0
 70
               1
 75
               5
  0
VERTEX
  5
3AA
100
AcDbEntity
  8
一般
370
               5
  6
Continuous
 62
               7
100
AcDbVertex
100
AcDb2dVertex
 10
104.70000000000005
 20
-102.93169999999998
 30
0.0
  0
VERTEX
  5
3AB
100
AcDbEntity
  8
一般
370
               5
  6
Continuous
 62
               7
100
AcDbVertex
100
AcDb2dVertex
 10
144.70000000000005
 20
-102.93169999999998
 30
0.0
  0
VERTEX
  5
3AC
100
AcDbEntity
  8
一般
370
               5
  6
Continuous
 62
               7
100
AcDbVertex
100
AcDb2dVertex
 10
144.70000000000005
 20
-107.43169999999998
 30
0.0
  0
VERTEX
  5
3AD
100
AcDbEntity
  8
一般
370
               5
  6
Continuous
 62
               7
100
AcDbVertex
100
AcDb2dVertex
 10
104.70000000000005
 20
-107.43169999999998
 30
0.0
  0
SEQEND
  5
3AE
100
AcDbEntity
  8
一般
370
               5
  6
Continuous
 62
               7
  0
POLYLINE
  5
3AF
100
AcDbEntity
  8
一般
370
               5
  6
Continuous
 62
               7
100
AcDb2dPolyline
 66
               1
 10
0.0
 20
0.0
 30
0.0
 70
               1
 75
               5
  0
VERTEX
  5
3B0
100
AcDbEntity
  8
一般
370
               5
  6
Continuous
 62
               7
100
AcDbVertex
100
AcDb2dVertex
 10
104.70000000000005
 20
-107.43169999999998
 30
0.0
  0
VERTEX
  5
3B1
100
AcDbEntity
  8
一般
370
               5
  6
Continuous
 62
               7
100
AcDbVertex
100
AcDb2dVertex
 10
144.70000000000005
 20
-107.43169999999998
 30
0.0
  0
VERTEX
  5
3B2
100
AcDbEntity
  8
一般
370
               5
  6
Continuous
 62
               7
100
AcDbVertex
100
AcDb2dVertex
 10
144.70000000000005
 20
-111.89999999999998
 30
0.0
  0
VERTEX
  5
3B3
100
AcDbEntity
  8
一般
370
               5
  6
Continuous
 62
               7
100
AcDbVertex
100
AcDb2dVertex
 10
104.70000000000005
 20
-111.89999999999998
 30
0.0
  0
SEQEND
  5
3B4
100
AcDbEntity
  8
一般
370
               5
  6
Continuous
 62
               7
  0
POLYLINE
  5
3B5
100
AcDbEntity
  8
一般
370
               5
  6
Continuous
 62
               7
100
AcDb2dPolyline
 66
               1
 10
0.0
 20
0.0
 30
0.0
 70
               1
 75
               5
  0
VERTEX
  5
3B6
100
AcDbEntity
  8
一般
370
               5
  6
Continuous
 62
               7
100
AcDbVertex
100
AcDb2dVertex
 10
104.70000000000005
 20
-111.89999999999998
 30
0.0
  0
VERTEX
  5
3B7
100
AcDbEntity
  8
一般
370
               5
  6
Continuous
 62
               7
100
AcDbVertex
100
AcDb2dVertex
 10
144.70000000000005
 20
-111.89999999999998
 30
0.0
  0
VERTEX
  5
3B8
100
AcDbEntity
  8
一般
370
               5
  6
Continuous
 62
               7
100
AcDbVertex
100
AcDb2dVertex
 10
144.70000000000005
 20
-116.39999999999998
 30
0.0
  0
VERTEX
  5
3B9
100
AcDbEntity
  8
一般
370
               5
  6
Continuous
 62
               7
100
AcDbVertex
100
AcDb2dVertex
 10
104.70000000000005
 20
-116.39999999999998
 30
0.0
  0
SEQEND
  5
3BA
100
AcDbEntity
  8
一般
370
               5
  6
Continuous
 62
               7
  0
POLYLINE
  5
3BB
100
AcDbEntity
  8
一般
370
               5
  6
Continuous
 62
               7
100
AcDb2dPolyline
 66
               1
 10
0.0
 20
0.0
 30
0.0
 70
               1
 75
               5
  0
VERTEX
  5
3BC
100
AcDbEntity
  8
一般
370
               5
  6
Continuous
 62
               7
100
AcDbVertex
100
AcDb2dVertex
 10
104.70000000000005
 20
-116.39999999999998
 30
0.0
  0
VERTEX
  5
3BD
100
AcDbEntity
  8
一般
370
               5
  6
Continuous
 62
               7
100
AcDbVertex
100
AcDb2dVertex
 10
124.70000000000005
 20
-116.39999999999998
 30
0.0
  0
VERTEX
  5
3BE
100
AcDbEntity
  8
一般
370
               5
  6
Continuous
 62
               7
100
AcDbVertex
100
AcDb2dVertex
 10
124.70000000000005
 20
-120.89999999999998
 30
0.0
  0
VERTEX
  5
3BF
100
AcDbEntity
  8
一般
370
               5
  6
Continuous
 62
               7
100
AcDbVertex
100
AcDb2dVertex
 10
104.70000000000005
 20
-120.89999999999998
 30
0.0
  0
SEQEND
  5
3C0
100
AcDbEntity
  8
一般
370
               5
  6
Continuous
 62
               7
  0
POLYLINE
  5
3C1
100
AcDbEntity
  8
一般
370
               5
  6
Continuous
 62
               7
100
AcDb2dPolyline
 66
               1
 10
0.0
 20
0.0
 30
0.0
 70
               1
 75
               5
  0
VERTEX
  5
3C2
100
AcDbEntity
  8
一般
370
               5
  6
Continuous
 62
               7
100
AcDbVertex
100
AcDb2dVertex
 10
104.70000000000005
 20
-111.89999999999998
 30
0.0
  0
VERTEX
  5
3C3
100
AcDbEntity
  8
一般
370
               5
  6
Continuous
 62
               7
100
AcDbVertex
100
AcDb2dVertex
 10
124.70000000000005
 20
-111.89999999999998
 30
0.0
  0
VERTEX
  5
3C4
100
AcDbEntity
  8
一般
370
               5
  6
Continuous
 62
               7
100
AcDbVertex
100
AcDb2dVertex
 10
124.70000000000005
 20
-116.39999999999998
 30
0.0
  0
VERTEX
  5
3C5
100
AcDbEntity
  8
一般
370
               5
  6
Continuous
 62
               7
100
AcDbVertex
100
AcDb2dVertex
 10
104.70000000000005
 20
-116.39999999999998
 30
0.0
  0
SEQEND
  5
3C6
100
AcDbEntity
  8
一般
370
               5
  6
Continuous
 62
               7
  0
POLYLINE
  5
3C7
100
AcDbEntity
  8
一般
370
               5
  6
Continuous
 62
               7
100
AcDb2dPolyline
 66
               1
 10
0.0
 20
0.0
 30
0.0
 70
               1
 75
               5
  0
VERTEX
  5
3C8
100
AcDbEntity
  8
一般
370
               5
  6
Continuous
 62
               7
100
AcDbVertex
100
AcDb2dVertex
 10
104.70000000000005
 20
-107.43169999999998
 30
0.0
  0
VERTEX
  5
3C9
100
AcDbEntity
  8
一般
370
               5
  6
Continuous
 62
               7
100
AcDbVertex
100
AcDb2dVertex
 10
124.70000000000005
 20
-107.43169999999998
 30
0.0
  0
VERTEX
  5
3CA
100
AcDbEntity
  8
一般
370
               5
  6
Continuous
 62
               7
100
AcDbVertex
100
AcDb2dVertex
 10
124.70000000000005
 20
-111.93169999999998
 30
0.0
  0
VERTEX
  5
3CB
100
AcDbEntity
  8
一般
370
               5
  6
Continuous
 62
               7
100
AcDbVertex
100
AcDb2dVertex
 10
104.70000000000005
 20
-111.93169999999998
 30
0.0
  0
SEQEND
  5
3CC
100
AcDbEntity
  8
一般
370
               5
  6
Continuous
 62
               7
  0
POLYLINE
  5
3CD
100
AcDbEntity
  8
一般
370
               5
  6
Continuous
 62
               7
100
AcDb2dPolyline
 66
               1
 10
0.0
 20
0.0
 30
0.0
 70
               1
 75
               5
  0
VERTEX
  5
3CE
100
AcDbEntity
  8
一般
370
               5
  6
Continuous
 62
               7
100
AcDbVertex
100
AcDb2dVertex
 10
104.70000000000005
 20
-102.93169999999998
 30
0.0
  0
VERTEX
  5
3CF
100
AcDbEntity
  8
一般
370
               5
  6
Continuous
 62
               7
100
AcDbVertex
100
AcDb2dVertex
 10
124.70000000000005
 20
-102.93169999999998
 30
0.0
  0
VERTEX
  5
3D0
100
AcDbEntity
  8
一般
370
               5
  6
Continuous
 62
               7
100
AcDbVertex
100
AcDb2dVertex
 10
124.70000000000005
 20
-107.43169999999998
 30
0.0
  0
VERTEX
  5
3D1
100
AcDbEntity
  8
一般
370
               5
  6
Continuous
 62
               7
100
AcDbVertex
100
AcDb2dVertex
 10
104.70000000000005
 20
-107.43169999999998
 30
0.0
  0
SEQEND
  5
3D2
100
AcDbEntity
  8
一般
370
               5
  6
Continuous
 62
               7
  0
LINE
  5
3D3
100
AcDbEntity
  8
0
370
               5
  6
Continuous
 62
               7
100
AcDbLine
 10
-178.29999999999995
 20
154.10000000000002
 30
0.0
 11
-173.29999999999995
 21
154.10000000000002
 31
0.0
  0
LINE
  5
3D4
100
AcDbEntity
  8
0
370
               5
  6
Continuous
 62
               7
100
AcDbLine
 10
-173.29999999999995
 20
159.10000000000002
 30
0.0
 11
-173.29999999999995
 21
154.10000000000002
 31
0.0
  0
LINE
  5
3D5
100
AcDbEntity
  8
0
370
               5
  6
Continuous
 62
               7
100
AcDbLine
 10
-178.29999999999995
 20
-120.89999999999998
 30
0.0
 11
-173.29999999999995
 21
-120.89999999999998
 31
0.0
  0
LINE
  5
3D6
100
AcDbEntity
  8
0
370
               5
  6
Continuous
 62
               7
100
AcDbLine
 10
-173.29999999999995
 20
-120.89999999999998
 30
0.0
 11
-173.29999999999995
 21
-125.89999999999998
 31
0.0
  0
LINE
  5
3D7
100
AcDbEntity
  8
0
370
               5
  6
Continuous
 62
               7
100
AcDbLine
 10
224.70000000000005
 20
-120.89999999999998
 30
0.0
 11
229.70000000000005
 21
-120.89999999999998
 31
0.0
  0
LINE
  5
3D8
100
AcDbEntity
  8
0
370
               5
  6
Continuous
 62
               7
100
AcDbLine
 10
224.70000000000005
 20
-120.89999999999998
 30
0.0
 11
224.70000000000005
 21
-125.89999999999998
 31
0.0
  0
LINE
  5
3D9
100
AcDbEntity
  8
0
370
               5
  6
Continuous
 62
               7
100
AcDbLine
 10
224.70000000000005
 20
154.10000000000002
 30
0.0
 11
229.70000000000005
 21
154.10000000000002
 31
0.0
  0
LINE
  5
3DA
100
AcDbEntity
  8
0
370
               5
  6
Continuous
 62
               7
100
AcDbLine
 10
224.70000000000005
 20
159.10000000000002
 30
0.0
 11
224.70000000000005
 21
154.10000000000002
 31
0.0
  0
WIPEOUT
  5
3DB
100
AcDbEntity
  8
0
370
               5
  6
Continuous
 62
               7
 92
        0
100
AcDbWipeout
 90
        0
 10
147.93611111111116
 20
-108.67973888888886
 30
0.0
 11
3.5277777777777715
 21
0.0
 31
0.0
 12
0.0
 22
3.5277777777777715
 32
0.0
 13
1.0
 23
1.0
340
0
 70
               7
280
               1
281
              50
282
              50
283
               0
360
0
 71
               2
 91
        5
 14
-0.5
 24
3.0511811023622091
 14
0.5
 24
3.0511811023622091
 14
0.5
 24
2.0511811023622091
 14
-0.5
 24
2.0511811023622091
 14
-0.5
 24
3.0511811023622091
  0
MTEXT
  5
3DC
100
AcDbEntity
  8
0
 62
               7
100
AcDbMText
 10
147.93611111111116
 20
-114.47111475694442
 30
0.0
 40
3.0868055555555558
 41
0.0
 71
               1
 72
               1
  1
{\H0.8795x;\lBK}
 73
               1
 44
0.7828267384257843
  0
WIPEOUT
  5
3DD
100
AcDbEntity
  8
0
370
               5
  6
Continuous
 62
               7
 92
        0
100
AcDbWipeout
 90
        0
 10
155.88055555555559
 20
-99.695588888888864
 30
0.0
 11
17.638888888888886
 21
0.0
 31
0.0
 12
0.0
 22
17.638888888888886
 32
0.0
 13
1.0
 23
1.0
340
0
 70
               7
280
               1
281
              50
282
              50
283
               0
360
0
 71
               2
 91
        5
 14
-0.5
 24
1.0102362204724411
 14
0.5
 24
1.0102362204724411
 14
0.5
 24
0.8102362204724414
 14
-0.5
 24
0.8102362204724414
 14
-0.5
 24
1.0102362204724411
  0
MTEXT
  5
3DE
100
AcDbEntity
  8
0
 62
               7
100
AcDbMText
 10
155.88055555555559
 20
-105.48696475694443
 30
0.0
 40
2.7147352430555558
 41
0.0
 71
               1
 72
               1
  1
2015/02/23
  7
ＭＳ ゴシック
 73
               1
 44
0.7828267384257843
  0
WIPEOUT
  5
3DF
100
AcDbEntity
  8
0
370
               5
  6
Continuous
 62
               7
 92
        0
100
AcDbWipeout
 90
        0
 10
194.0263888888889
 20
-102.12777777777778
 30
0.0
 11
12.347222222222229
 21
0.0
 31
0.0
 12
0.0
 22
12.347222222222229
 32
0.0
 13
1.0
 23
1.0
340
0
 70
               7
280
               1
281
              50
282
              50
283
               0
360
0
 71
               2
 91
        5
 14
-0.5
 24
1.2289088863892008
 14
0.5
 24
1.2289088863892008
 14
0.5
 24
0.6574803149606298
 14
-0.5
 24
0.6574803149606298
 14
-0.5
 24
1.2289088863892008
  0
MTEXT
  5
3E0
100
AcDbEntity
  8
0
 62
               7
100
AcDbMText
 10
200.20000000000002
 20
-104.39137586805556
 30
0.0
 40
2.7147352430555558
 41
0.0
 71
               2
 72
               1
  1
PSR4.3J\P寸法図
  7
ＭＳ ゴシック
 73
               1
 44
0.7828267384257843
  0
WIPEOUT
  5
3E1
100
AcDbEntity
  8
0
370
               5
  6
Continuous
 62
               7
 92
        0
100
AcDbWipeout
 90
        0
 10
167.3187498317825
 20
-108.50334999999998
 30
0.0
 11
4.762500336435096
 21
0.0
 31
0.0
 12
0.0
 22
4.762500336435096
 32
0.0
 13
1.0
 23
1.0
340
0
 70
               7
280
               1
281
              50
282
              50
283
               0
360
0
 71
               2
 91
        5
 14
-0.5
 24
2.3897636460298557
 14
0.5
 24
2.3897636460298557
 14
0.5
 24
1.7230970264582095
 14
-0.5
 24
1.7230970264582095
 14
-0.5
 24
2.3897636460298557
  0
MTEXT
  5
3E2
100
AcDbEntity
  8
0
 62
               7
100
AcDbMText
 10
167.3187498317825
 20
-114.61558828124998
 30
0.0
 40
2.7781250000000002
 41
0.0
 71
               1
 72
               1
  1
{\H0.8795x;\l1/1}
 73
               1
 44
0.7828267384257843
  0
INSERT
  5
3E3
100
AcDbEntity
  8
0
 62
               7
100
AcDbBlockReference
  2
グループ-4
 10
25.5
 20
16.5
 30
0.0
  0
INSERT
  5
3E4
100
AcDbEntity
  8
0
 62
               7
100
AcDbBlockReference
  2
グループ-7
 10
25.5
 20
16.5
 30
0.0
  0
INSERT
  5
3E5
100
AcDbEntity
  8
0
 62
               7
100
AcDbBlockReference
  2
グループ-8
 10
25.5
 20
16.5
 30
0.0
  0
INSERT
  5
3E6
100
AcDbEntity
  8
0
 62
               7
100
AcDbBlockReference
  2
グループ-11
 10
25.5
 20
16.5
 30
0.0
  0
DIMENSION
  5
3E7
100
AcDbEntity
  8
寸法
370
               5
  6
Continuous
 62
               7
100
AcDbDimension
  2
*D14
 10
-121.0
 20
-90.000000000000014
 30
0.0
 11
-65.5
 21
-90.000000000000014
 31
0.0
 71
               5
 72
               1
 41
1.0
 42
0.0
  3
Arch
100
AcDbAlignedDimension
 13
-9.9999999999999858
 23
-70.0
 33
0.0
 14
-121.0
 24
-70.0
 34
0.0
100
AcDbRotatedDimension
1001
ACAD
1000
DSTYLE
1002
{
1070
             279
1070
               2
1070
             340
1005
35
1002
}
  0
DIMENSION
  5
3E8
100
AcDbEntity
  8
寸法
370
               5
  6
Continuous
 62
               7
100
AcDbDimension
  2
*D15
 10
-140.0
 20
-29.807477288111834
 30
0.0
 11
-140.0
 21
-50.807477288111841
 31
0.0
 71
               5
 72
               1
 41
1.0
 42
0.0
  3
Arch
100
AcDbAlignedDimension
 13
-117.80000000000001
 23
-71.807477288111841
 33
0.0
 14
-117.80000000000001
 24
-29.807477288111834
 34
0.0
 50
90.0
100
AcDbRotatedDimension
1001
ACAD
1000
DSTYLE
1002
{
1070
             279
1070
               2
1070
             340
1005
35
1002
}
  0
DIMENSION
  5
3E9
100
AcDbEntity
  8
寸法
370
               5
  6
Continuous
 62
               7
100
AcDbDimension
  2
*D16
 10
-140.0
 20
120.0
 30
0.0
 11
-140.0
 21
55.0
 31
0.0
 71
               5
 72
               1
 41
1.0
 42
0.0
  3
Arch
100
AcDbAlignedDimension
 13
-121.0
 23
-10.0
 33
0.0
 14
-121.0
 24
120.0
 34
0.0
 50
90.0
100
AcDbRotatedDimension
1001
ACAD
1000
DSTYLE
1002
{
1070
             279
1070
               2
1070
             340
1005
35
1002
}
  0
DIMENSION
  5
3EA
100
AcDbEntity
  8
寸法
370
               5
  6
Continuous
 62
               7
100
AcDbDimension
  2
*D17
 10
140.0
 20
-40.0
 30
0.0
 11
150.0
 21
-40.0
 31
0.0
 71
               5
 72
               1
 41
1.0
 42
0.0
  3
Arch
100
AcDbAlignedDimension
 13
160.0
 23
-58.307477288111841
 33
0.0
 14
140.0
 24
-58.307477288111841
 34
0.0
100
AcDbRotatedDimension
1001
ACAD
1000
DSTYLE
1002
{
1070
             279
1070
               2
1070
             340
1005
35
1070
             140
1040
2.4432617187500001
1002
}
  0
DIMENSION
  5
3EB
100
AcDbEntity
  8
寸法
370
               5
  6
Continuous
 62
               7
100
AcDbDimension
  2
*D18
 10
140.0
 20
-90.000000000000014
 30
0.0
 11
159.20871215252208
 21
-90.000000000000014
 31
0.0
 71
               5
 72
               1
 41
1.0
 42
0.0
  3
Arch
100
AcDbAlignedDimension
 13
178.41742430504416
 23
-66.307477288111841
 33
0.0
 14
140.0
 24
-66.307477288111841
 34
0.0
100
AcDbRotatedDimension
1001
ACAD
1000
DSTYLE
1002
{
1070
             279
1070
               2
1070
             340
1005
35
1070
             140
1040
2.4432617187500001
1002
}
  0
WIPEOUT
  5
3EC
100
AcDbEntity
  8
0
370
               5
  6
Continuous
 62
               7
 92
        0
100
AcDbWipeout
 90
        0
 10
141.84374966356489
 20
-29.176388888888901
 30
0.0
 11
17.286111111111126
 21
0.0
 31
0.0
 12
0.0
 22
17.286111111111126
 32
0.0
 13
1.0
 23
1.0
340
0
 70
               7
280
               1
281
              50
282
              50
283
               0
360
0
 71
               2
 91
        5
 14
-0.5
 24
1.0206492045637148
 14
0.4999999999999983
 24
1.0206492045637148
 14
0.4999999999999983
 24
0.7349349188494293
 14
-0.5
 24
0.7349349188494293
 14
-0.5
 24
1.0206492045637148
  0
MTEXT
  5
3ED
100
AcDbEntity
  8
0
 62
               7
100
AcDbMText
 10
141.84374966356489
 20
-33.684315104166679
 30
0.0
 40
4.3215277777777779
 41
0.0
 71
               1
 72
               1
  1
{\H0.8795x;\l約0.8ｍ}
 73
               1
 44
0.7828267384257843
  0
WIPEOUT
  5
3EE
100
AcDbEntity
  8
0
370
               5
  6
Continuous
 62
               7
 92
        0
100
AcDbWipeout
 90
        0
 10
150.80000000000001
 20
-79.438888888888883
 30
0.0
 11
17.286111111111111
 21
0.0
 31
0.0
 12
0.0
 22
17.286111111111111
 32
0.0
 13
1.0
 23
1.0
340
0
 70
               7
280
               1
281
              50
282
              50
283
               0
360
0
 71
               2
 91
        5
 14
-0.5
 24
1.0206492045637152
 14
0.4999999999999992
 24
1.0206492045637152
 14
0.4999999999999992
 24
0.7349349188494299
 14
-0.5
 24
0.7349349188494299
 14
-0.5
 24
1.0206492045637152
  0
MTEXT
  5
3EF
100
AcDbEntity
  8
0
 62
               7
100
AcDbMText
 10
150.80000000000001
 20
-83.94681510416666
 30
0.0
 40
3.8006293402777782
 41
0.0
 71
               1
 72
               1
  1
約1.9ｍ
  7
ＭＳ ゴシック
 73
               1
 44
0.7828267384257843
  0
ENDSEC
  0
SECTION
  2
OBJECTS
  0
DICTIONARY
  5
19
100
AcDbDictionary
280
               0
281
               1
  3
ACAD_GROUP
350
1A
  3
ACAD_MLINESTYLE
350
1B
  3
ACAD_LAYOUT
350
1E
  3
ACAD_PLOTSETTINGS
350
22
  3
ACAD_PLOTSTYLENAME
350
1F
  3
ACAD_WIPEOUT_VARS
350
23
  0
DICTIONARY
  5
1A
102
{ACAD_REACTORS
330
19
102
}
100
AcDbDictionary
280
               0
281
               1
  0
DICTIONARY
  5
1B
102
{ACAD_REACTORS
330
19
102
}
100
AcDbDictionary
280
               0
281
               1
  3
Standard
350
1C
  0
MLINESTYLE
  5
1C
102
{ACAD_REACTORS
330
1B
102
}
100
AcDbMlineStyle
  2
Standard
 70
               0
  3

 62
               0
 51
90.0
 52
90.0
 71
               2
 49
0.5
 62
             256
  6
ByLayer
 49
-0.5
 62
             256
  6
ByLayer
  0
ACDBDICTIONARYWDFLT
  5
1F
102
{ACAD_REACTORS
330
19
102
}
100
AcDbDictionary
281
               1
  3
Normal
350
1D
100
AcDbDictionaryWithDefault
340
1D
  0
ACDBPLACEHOLDER
  5
1D
102
{ACAD_REACTORS
330
1F
102
}
  0
LAYOUT
  5
20
102
{ACAD_REACTORS
330
1E
102
}
100
AcDbPlotSettings
  1

  2

  4

  6

 40
0.0
 41
0.0
 42
0.0
 43
0.0
 44
0.0
 45
0.0
 46
0.0
 47
0.0
 48
0.0
 49
0.0
140
0.0
141
0.0
142
1.0
143
1.0
 70
            1024
 72
               0
 73
               0
 74
               0
  7

 75
               0
147
1.0
148
0.0
149
0.0
100
AcDbLayout
  1
Model
 70
               0
 71
               0
 10
0.0
 20
0.0
 11
0.0
 21
0.0
 12
0.0
 22
0.0
 32
0.0
 14
0.0
 24
0.0
 34
0.0
 15
0.0
 25
0.0
 35
0.0
146
0.0
 13
0.0
 23
0.0
 33
0.0
 16
0.0
 26
0.0
 36
0.0
 17
0.0
 27
0.0
 37
0.0
 76
               0
330
A
331
0
345
0
346
0
  0
LAYOUT
  5
21
102
{ACAD_REACTORS
330
1E
102
}
100
AcDbPlotSettings
  1

  2

  4

  6

 40
0.0
 41
0.0
 42
0.0
 43
0.0
 44
0.0
 45
0.0
 46
0.0
 47
0.0
 48
0.0
 49
0.0
140
0.0
141
0.0
142
1.0
143
1.0
 70
               0
 72
               0
 73
               0
 74
               0
  7

 75
               0
147
1.0
148
0.0
149
0.0
100
AcDbLayout
  1
Layout1
 70
               0
 71
               0
 10
0.0
 20
0.0
 11
0.0
 21
0.0
 12
0.0
 22
0.0
 32
0.0
 14
0.0
 24
0.0
 34
0.0
 15
0.0
 25
0.0
 35
0.0
146
0.0
 13
0.0
 23
0.0
 33
0.0
 16
0.0
 26
0.0
 36
0.0
 17
0.0
 27
0.0
 37
0.0
 76
               0
330
B
331
0
345
0
346
0
  0
DICTIONARY
  5
1E
102
{ACAD_REACTORS
330
19
102
}
100
AcDbDictionary
280
               0
281
               1
  3
Layout1
350
21
  3
Model
350
20
  0
DICTIONARY
  5
22
102
{ACAD_REACTORS
330
19
102
}
100
AcDbDictionary
280
               0
281
               1
  0
WIPEOUTVARIABLES
  5
23
100
AcDbWipeoutVariables
 70
               0
  0
ENDSEC
  0
EOF
